В поисках мистера Совершенство / Finding Mr. Right / Beijing yu shang Xiyatu (Сюэ Сяолу / Xue Xiaolu) [2013, Китай - Гонконг, романтическая комедия, DVDRip] VO SledgeH

Ответить на тему
 
Автор Сообщение

user ®

Стаж: 11 лет

Сообщений: 15151

Пост Пост: #1 от 08-Май-2014 15:25

[Цитировать]

В поисках мистера Совершенство / Finding Mr. Right / Beijing yu shang Xiyatu
Страна: Китай - Гонконг
Жанр: романтическая комедия
Год выпуска: 2013
Продолжительность: 02:02:40
Перевод: Любительский (одноголосый закадровый) SledgeH
Cубтитры: нет
Режиссер: Сюэ Сяолу / Xue Xiaolu
В ролях: Тан Вэй (Вэнь Цзя Цзя), Сиобо Ву (Фрэнк), Элейн Цзин (г-жа Хуан), Джессика Сонг (Джули), Рене Ванг (Линда)
Описание: Вэнь Цзя Цзя, любовница китайского бизнесмена, по туристической визе прилетает из Китая в Сиэтл чтобы нелегально родить ребенка. Она попадает в частный пансионат женщины с Тайваня г-жи Хуан, где будущие мамаши живут в ожидании родов.
Со временем, главная героиня сходится с водителем Фрэнком, который помогает ей с самого начала и, особенно, в трудную минуту, когда отцу ребенка не удается приехать из Китая в Сиэтл, а все кредитные карты Вэнь Цзя Цзя оказываются заблокированными...-Качество видео: DVDRip
Формат видео: AVI
Видео: 720х304 (2.35:1), MPEG-4, 23.976 fps, ~ 1 318 kbps avg, 0.251 bit/pixel
Аудио: 48 kHz, MPEG Layer 3, 2 ch, 192.00 kbps [китайская с русским переводом]-Сэмпл Скриншоты MI
Общее
Полное имя                               : E:\Сведен\итог\FMR_Sle.avi
Формат                                   : AVI
Формат/Информация                        : Audio Video Interleave
Размер файла                             : 1,30 Гбайт
Продолжительность                        : 2 ч. 2 м.
Общий поток                              : 1519 Кбит/сек
Программа кодирования                    : VirtualDubMod 1.5.10.2 (build 2540/release)
Библиотека кодирования                   : VirtualDubMod build 2540/release
Видео
Идентификатор                            : 0
Формат                                   : MPEG-4 Visual
Профиль формата                          : Advanced Simple@L5
Параметр BVOP формата                    : 1
Параметр QPel формата                    : Нет
Параметр GMC формата                     : Без точки перехода
Параметр матрицы формата                 : Default (MPEG)
Идентификатор кодека                     : XVID
Идентификатор кодека/Подсказка           : XviD
Продолжительность                        : 2 ч. 2 м.
Битрейт                                  : 1318 Кбит/сек
Ширина                                   : 720 пикселей
Высота                                   : 304 пикселя
Соотношение сторон                       : 2,35:1
Частота кадров                           : 23,976 кадра/сек
Цветовое пространство                    : YUV
Субдискретизация насыщенности            : 4:2:0
Битовая глубина                          : 8 бит
Тип развёртки                            : Прогрессивная
Метод сжатия                             : С потерями
Бит/(Пиксели*Кадры)                      : 0.251
Размер потока                            : 1,13 Гбайт (87%)
Библиотека кодирования                   : XviD 1.2.1 (UTC 2008-12-04)
Аудио
Идентификатор                            : 1
Формат                                   : MPEG Audio
Версия формата                           : Version 1
Профиль формата                          : Layer 3
Режим                                    : Joint stereo
Идентификатор кодека                     : 55
Идентификатор кодека/Подсказка           : MP3
Продолжительность                        : 2 ч. 2 м.
Вид битрейта                             : Постоянный
Битрейт                                  : 192 Кбит/сек
Каналы                                   : 2 канала
Частота                                  : 48,0 КГц
Метод сжатия                             : С потерями
Размер потока                            : 168 Мбайт (13%)
Выравнивание                             : Соединение по промежуткам
Продолжительность промежутка             : 42  мс. (1,00 видеокадр)
Время предзагрузки промежутка            : 504  мс.
Скачать

Скачать торрент! В поисках мистера Совершенство / Finding Mr. Right / Beijing yu shang Xiyatu (Сюэ Сяолу / Xue Xiaolu) [2013, Китай - Гонконг, романтическая комедия, DVDRip] VO SledgeH

Как скачивать? · Что такое торрент? · Рейтинг и ограничения

Сайт не распространяет и не хранит электронные версии произведений, а лишь предоставляет доступ к создаваемому пользователями каталогу ссылок на торрент-файлы, которые содержат только списки хеш-сумм

[Профиль] [ЛС]
Показать сообщения:    
Ответить на тему

Текущее время: Сегодня 09:24

Часовой пояс: GMT + 4



Вы не можете начинать темы
Вы не можете отвечать на сообщения
Вы не можете редактировать свои сообщения
Вы не можете удалять свои сообщения
Вы не можете голосовать в опросах
Вы не можете прикреплять файлы к сообщениям
Вы не можете скачивать файлы