Беспредел / Autoreiji / Outrage (Такеши Китано / Takeshi Kitano ) [2010, Япония, драма, криминал, BDRip] MVO

Ответить на тему
 
Автор Сообщение

user ®

Стаж: 11 лет

Сообщений: 15151

Пост Пост: #1 от 08-Май-2014 15:25

[Цитировать]

-Беспредел / Autoreiji / Outrage アウトレイジ
Страна: Япония
Жанр: драма, криминал
Год выпуска: 2010
Продолжительность: 01:49:43-Перевод 1: Профессиональный (многоголосый закадровый)
Cубтитры: нет
Оригинальная аудиодорожка: нет-Режиссер: Такеши Китано / Takeshi Kitano-В ролях-Такеши Китано, Киппэй Сиина, Рё Касэ, Томокадзу Миура, Дзюн Кунимура, Тэтта Сугимото, Такаши Цукамото, Юка Итая, Хидео Накано, Рэндзи Исибаси-Описание-В безжалостной борьбе за власть несколько кланов якудза оспаривают расположение Крестного отца. Главари поднимаются по иерархической лестнице в организации, не пренебрегая заговорами и лживыми клятвами верности. Опытный якудза Отомо наблюдает за развитием карьеры своих товарищей: оставив позади замысловатые татуировки и отрубленные пальцы, они штурмуют мир финансов. В мире коррупции, где царят предательство и месть, ни на минуту не прекращается борьба за достижение вершины или просто за выживание. Это — мир, где героев не существует…-Качество видео: BDRip
Исходное видео: Blu-ray |HDClub|-Контейнер: AVI-Видео: XviD 73, 720x304 (2,35:1), ~1500 kbps, 23,976 fps,
Аудио: AC-3, 448 kbps, Dolby Digital, 3/2 (L,C,R,l,r) + LFE ch, 48 KHz |MVO|--

MediaInfo
Формат : AVI
Формат/Информация : Audio Video Interleave
Размер файла : 1,47 Гбайт
Продолжительность : 1 ч. 49 м.
Общий поток : 1912 Кбит/сек
Название фильма : Беспредел / Autoreiji (2010)
Режиссёр : Такеши Китано / Takeshi Kitano
Программа кодирования : VirtualDubModRus 1.5.10.2 (build 2542/release)
Библиотека кодирования : VirtualDubMod build 2542/release
Правообладатель : BDRip_cw
Видео
Идентификатор : 0
Формат : MPEG-4 Visual
Профиль формата : Advanced Simple@L5
Параметр BVOP формата : 2
Параметр QPel формата : Нет
Параметр GMC формата : Без точки перехода
Параметр матрицы формата : Выборочная
Идентификатор кодека : XVID
Идентификатор кодека/Подсказка : XviD
Продолжительность : 1 ч. 49 м.
Битрейт : 1455 Кбит/сек
Ширина : 720 пикселей
Высота : 304 пикселя
Соотношение сторон : 2,35:1
Частота кадров : 23,976 кадра/сек
Цветовое пространство : YUV
Субдискретизация насыщенности : 4:2:0
Битовая глубина : 8 бит
Тип развёртки : Прогрессивная
Метод сжатия : С потерями
Бит/(Пиксели*Кадры) : 0.277
Размер потока : 1,11 Гбайт (76%)
Библиотека кодирования : XviD 73
Аудио
Идентификатор : 1
Формат : AC-3
Формат/Информация : Audio Coding 3
Расширение режима : CM (complete main)
Параметр Endianness формата : Big
Идентификатор кодека : 2000
Продолжительность : 1 ч. 49 м.
Вид битрейта : Постоянный
Битрейт : 448 Кбит/сек
Каналы : 6 каналов
Расположение каналов : Front: L C R, Side: L R, LFE
Частота : 48,0 КГц
Битовая глубина : 16 бит
Метод сжатия : С потерями
Размер потока : 352 Мбайт (23%)
Выравнивание : Разделение по промежуткам
Продолжительность промежутка : 42 мс. (1,00 видеокадр)
Время предзагрузки промежутка : 500 мс.
Заголовок : MVO
Скриншоты -Зв. дорожку с переводом Ю. Сербина можно взять ТУТ
Скачать

Скачать торрент! Беспредел / Autoreiji / Outrage (Такеши Китано / Takeshi Kitano ) [2010, Япония, драма, криминал, BDRip] MVO

Как скачивать? · Что такое торрент? · Рейтинг и ограничения

Сайт не распространяет и не хранит электронные версии произведений, а лишь предоставляет доступ к создаваемому пользователями каталогу ссылок на торрент-файлы, которые содержат только списки хеш-сумм

[Профиль] [ЛС]
Показать сообщения:    
Ответить на тему

Текущее время: Сегодня 10:34

Часовой пояс: GMT + 4



Вы не можете начинать темы
Вы не можете отвечать на сообщения
Вы не можете редактировать свои сообщения
Вы не можете удалять свои сообщения
Вы не можете голосовать в опросах
Вы не можете прикреплять файлы к сообщениям
Вы не можете скачивать файлы