Блондинка в эфире / Walk of Shame (Стивен Брилл / Steven Brill) [2014, США, Комедия, WEB-DLRip] Dub (TS)

Ответить на тему
 
Автор Сообщение

user ®

Стаж: 7 лет 7 месяцев

Сообщений: 20008

Пост Пост: #1 от 08-Май-2014 10:15

[Цитировать]

Блондинка в эфире / Walk of Shame
Страна: США
Жанр: Комедия
Год выпуска: 2014
Продолжительность: 01:34:29
Перевод: Профессиональный (дублированный) TS
Cубтитры: нет
Оригинальная аудиодорожка: нет
Режиссер: Стивен Брилл / Steven Brill
В ролях: Элизабет Бэнкс, Джеймс Марсден, Джиллиан Джейкобс, Сара Райт, Итан Сапли, Билли Барр, Кен Давитян, Ларри Джиллиард мл., Альфонсо МакОли, Дэвон МакДональд
Описание: После провала собеседования на перспективную должность на Лос-Анджелесском телевидении амбициозная телеведущая с горя уходит в загул.
Проведя бурную ночь, она приходит в себя утром на улице, не имея при себе ни денег, ни паспорта, ни машины… Есть только мобильный, в котором она читает смс: «Поздравляем! Вы приняты на работу. Сегодня первый эфир».
Сэмпл: http://multi-up.com/972380
Качество видео: WEB-DLRip
Формат видео: AVI
Видео: Xvid 656x272 23.976fps 895 Kbps
Аудио: MP3 44100Hz stereo 128kbps
MediaInfo
General
Complete name : D:\Walk.of.Shame.2014.WEB-DLRip.avi
Format : AVI
Format/Info : Audio Video Interleave
File size : 698 MiB
Duration : 1h 34mn
Overall bit rate : 1 032 Kbps
Writing application : VirtualDubMod 1.5.10.3 | www.virtualdub-fr.org || (build 2550/release)
Writing library : VirtualDubMod build 2550/release
Video
ID : 0
Format : MPEG-4 Visual
Format profile : Advanced Simple@L5
Format settings, BVOP : Yes
Format settings, QPel : No
Format settings, GMC : No warppoints
Format settings, Matrix : Default (H.263)
Codec ID : XVID
Codec ID/Hint : XviD
Duration : 1h 34mn
Bit rate : 895 Kbps
Width : 656 pixels
Height : 272 pixels
Display aspect ratio : 2.40:1
Frame rate : 23.976 fps
Color space : YUV
Chroma subsampling : 4:2:0
Bit depth : 8 bits
Scan type : Progressive
Compression mode : Lossy
Bits/(Pixel*Frame) : 0.209
Stream size : 605 MiB (87%)
Writing library : XviD 1.2.1 (UTC 2008-12-04)
Audio
ID : 1
Format : MPEG Audio
Format version : Version 1
Format profile : Layer 3
Codec ID : 55
Codec ID/Hint : MP3
Duration : 1h 34mn
Bit rate mode : Constant
Bit rate : 128 Kbps
Channel count : 2 channels
Sampling rate : 44.1 KHz
Compression mode : Lossy
Stream size : 86.5 MiB (12%)
Alignment : Split accross interleaves
Interleave, duration : 42 ms (1.00 video frame)
Interleave, preload duration : 500 ms
Скриншот c названием фильма Скриншоты
Скачать

Скачать торрент!

Как скачивать? · Что такое торрент? · Рейтинг и ограничения

Сайт не распространяет и не хранит электронные версии произведений, а лишь предоставляет доступ к создаваемому пользователями каталогу ссылок на торрент-файлы, которые содержат только списки хеш-сумм

[Профиль] [ЛС]
Показать сообщения:    
Ответить на тему

Текущее время: Сегодня 09:51

Часовой пояс: GMT + 4



Вы не можете начинать темы
Вы не можете отвечать на сообщения
Вы не можете редактировать свои сообщения
Вы не можете удалять свои сообщения
Вы не можете голосовать в опросах
Вы не можете прикреплять файлы к сообщениям
Вы не можете скачивать файлы