Крокодил Данди 2 / "Crocodile" Dundee II (Джон Корнелл / John Cornell) [1988, США, Австралия, комедия, приключения, BDRip 1080p] Dub + 3х AVO (Дохалов, Живов, Кузнецов) + Sub Rus, Eng + Original Eng

Ответить на тему
 
Автор Сообщение

user ®

Стаж: 7 лет 7 месяцев

Сообщений: 20008

Пост Пост: #1 от 08-Май-2014 00:45

[Цитировать]

Крокодил Данди 2 / "Crocodile" Dundee II
Страна: США, Австралия
Студия: Paramount Pictures, Rimfire Films
Жанр: комедия, приключения
Год выпуска: 1988
Продолжительность: 01:51:36
Перевод 1: Профессиональный (дублированный) (Советский)
Перевод 2: Авторский (одноголосый закадровый) (Дохалов)
Перевод 3: Авторский (одноголосый закадровый) (Живов)
Перевод 4: Авторский (одноголосый закадровый) (Кузнецов)
Оригинальная аудиодорожка: английский
Cубтитры: русские, английские
Режиссер: Джон Корнелл / John Cornell
В ролях: Пол Хоган, Линда Козловски, Джон Майллон, Эрни Динго, Стив Рэкмен, Джерри жерри Скилтон, Гас Мёркюрио, Джим Холт, Алек Уилсон, Чарльз С. Даттон
Описание: Данди, охотник на крокодилов, сменил австралийский шалаш на американский пентхаус: спит в шелковой пижаме и пьет кофе из японского фарфора. Но шляпу с крокодильими зубами, кожаные штаны и огромный нож за поясом он себе оставил - на всякий случай. Хватит ли этого, чтобы спасти любимую от колумбийской мафии?..
Сэмпл
Тип релиза: BDRip 1080p
Контейнер: MKV
Видео: 1920 x 816 (2.353), 23.976 fps, AVC at 9707 Кбит/сек
Аудио 1: AC-3 at 384 Кбит/сек, 6 каналов, 48,0 КГц (DUB)
Аудио 2: AC-3 at 192 Кбит/сек, 2 канала, 48,0 КГц (Дохалов)
Аудио 3: AC-3 at 192 Кбит/сек, 2 канала, 48,0 КГц (Живов)
Аудио 4: AC-3 at 192 Кбит/сек, 2 канала, 48,0 КГц (Кузнецов)
Аудио 5: DTS at 1509 Кбит/сек, 6 каналов, 48,0 КГц (ENG)
Формат субтитров: softsub (SRT)
MediaInfo
Общее
Полное имя :Crocodile.dundee.ii.1988.BDRip.(1080p).mkv
Формат : Matroska
Версия формата : Version 4 / Version 2
Размер файла : 9,49 Гбайт
Продолжительность : 1 ч. 51 м.
Общий поток : 12,2 Мбит/сек
Дата кодирования : UTC 2014-05-05 17:47:20
Программа кодирования : mkvmerge v6.1.0 ('Old Devil') built on Mar 4 2013 09:10:42
Библиотека кодирования : libebml v1.3.0 + libmatroska v1.4.0
Видео
Идентификатор : 1
Формат : AVC
Формат/Информация : Advanced Video Codec
Профиль формата : High@L4.1
Параметр CABAC формата : Да
Параметр ReFrames формата : 5 кадров
Идентификатор кодека : V_MPEG4/ISO/AVC
Продолжительность : 1 ч. 51 м.
Битрейт : 9707 Кбит/сек
Ширина : 1920 пикселей
Высота : 816 пикселей
Соотношение сторон : 2,35:1
Режим частоты кадров : Постоянный
Частота кадров : 23,976 кадра/сек
Цветовое пространство : YUV
Субдискретизация насыщенности : 4:2:0
Битовая глубина : 8 бит
Тип развёртки : Прогрессивная
Бит/(Пиксели*Кадры) : 0.258
Размер потока : 7,38 Гбайт (78%)
Библиотека кодирования : x264 core 142 r2431 ac76440
Настройки программы : cabac=1 / ref=5 / deblock=1:-3:-3 / analyse=0x3:0x113 / me=umh / subme=8 / psy=1 / psy_rd=1.00:0.00 / mixed_ref=1 / me_range=16 / chroma_me=1 / trellis=1 / 8x8dct=1 / cqm=0 / deadzone=21,11 / fast_pskip=1 / chroma_qp_offset=-2 / threads=12 / lookahead_threads=2 / sliced_threads=0 / nr=0 / decimate=1 / interlaced=0 / bluray_compat=0 / constrained_intra=0 / bframes=3 / b_pyramid=2 / b_adapt=2 / b_bias=0 / direct=3 / weightb=1 / open_gop=0 / weightp=2 / keyint=240 / keyint_min=24 / scenecut=40 / intra_refresh=0 / rc_lookahead=50 / rc=2pass / mbtree=1 / bitrate=9707 / ratetol=1.0 / qcomp=0.60 / qpmin=0 / qpmax=69 / qpstep=4 / cplxblur=20.0 / qblur=0.5 / ip_ratio=1.40 / aq=1:1.00
Язык : English
Default : Да
Forced : Нет
Аудио #1
Идентификатор : 2
Формат : AC-3
Формат/Информация : Audio Coding 3
Расширение режима : CM (complete main)
Параметр Endianness формата : Big
Идентификатор кодека : A_AC3
Продолжительность : 1 ч. 51 м.
Вид битрейта : Постоянный
Битрейт : 384 Кбит/сек
Каналы : 6 каналов
Расположение каналов : Front: L C R, Side: L R, LFE
Частота : 48,0 КГц
Битовая глубина : 16 бит
Метод сжатия : С потерями
Размер потока : 307 Мбайт (3%)
Заголовок : Дубляж
Язык : Russian
Default : Да
Forced : Нет
Аудио #2
Идентификатор : 3
Формат : AC-3
Формат/Информация : Audio Coding 3
Профиль формата : Dolby Digital
Расширение режима : CM (complete main)
Параметр Endianness формата : Big
Идентификатор кодека : A_AC3
Продолжительность : 1 ч. 51 м.
Вид битрейта : Постоянный
Битрейт : 192 Кбит/сек
Каналы : 2 канала
Расположение каналов : Front: L R
Частота : 48,0 КГц
Битовая глубина : 16 бит
Метод сжатия : С потерями
Размер потока : 153 Мбайт (2%)
Заголовок : Дохалов
Язык : Russian
Default : Нет
Forced : Нет
Аудио #3
Идентификатор : 4
Формат : AC-3
Формат/Информация : Audio Coding 3
Профиль формата : Dolby Digital
Расширение режима : CM (complete main)
Параметр Endianness формата : Big
Идентификатор кодека : A_AC3
Продолжительность : 1 ч. 51 м.
Вид битрейта : Постоянный
Битрейт : 192 Кбит/сек
Каналы : 2 канала
Расположение каналов : Front: L R
Частота : 48,0 КГц
Битовая глубина : 16 бит
Метод сжатия : С потерями
Размер потока : 153 Мбайт (2%)
Заголовок : Живов
Язык : Russian
Default : Нет
Forced : Нет
Аудио #4
Идентификатор : 5
Формат : AC-3
Формат/Информация : Audio Coding 3
Профиль формата : Dolby Digital
Расширение режима : CM (complete main)
Параметр Endianness формата : Big
Идентификатор кодека : A_AC3
Продолжительность : 1 ч. 51 м.
Вид битрейта : Постоянный
Битрейт : 192 Кбит/сек
Каналы : 2 канала
Расположение каналов : Front: L R
Частота : 48,0 КГц
Битовая глубина : 16 бит
Метод сжатия : С потерями
Размер потока : 153 Мбайт (2%)
Заголовок : Кузнецов
Язык : Russian
Default : Нет
Forced : Нет
Аудио #5
Идентификатор : 6
Формат : DTS
Формат/Информация : Digital Theater Systems
Режим : 16
Параметр Endianness формата : Big
Идентификатор кодека : A_DTS
Продолжительность : 1 ч. 51 м.
Вид битрейта : Постоянный
Битрейт : 1509 Кбит/сек
Каналы : 6 каналов
Расположение каналов : Front: L C R, Side: L R, LFE
Частота : 48,0 КГц
Битовая глубина : 24 бит
Метод сжатия : С потерями
Размер потока : 1,18 Гбайт (12%)
Язык : English
Default : Нет
Forced : Нет
Текст #1
Идентификатор : 7
Формат : UTF-8
Идентификатор кодека : S_TEXT/UTF8
Идентификатор кодека/Информация : UTF-8 Plain Text
Язык : Russian
Default : Нет
Forced : Нет
Текст #2
Идентификатор : 8
Формат : UTF-8
Идентификатор кодека : S_TEXT/UTF8
Идентификатор кодека/Информация : UTF-8 Plain Text
Язык : English
Default : Нет
Forced : Нет
Текст #3
Идентификатор : 9
Формат : UTF-8
Идентификатор кодека : S_TEXT/UTF8
Идентификатор кодека/Информация : UTF-8 Plain Text
Заголовок : SDH
Язык : English
Default : Нет
Forced : Нет
Меню
00:00:00.000 : en:00:00:00.000
00:05:09.518 : en:00:05:09.518
00:12:49.560 : en:00:12:49.560
00:17:19.413 : en:00:17:19.413
00:22:41.277 : en:00:22:41.277
00:28:59.488 : en:00:28:59.488
00:33:22.918 : en:00:33:22.918
00:38:39.692 : en:00:38:39.692
00:45:26.015 : en:00:45:26.015
00:50:32.488 : en:00:50:32.488
00:56:54.703 : en:00:56:54.703
01:04:12.891 : en:01:04:12.891
01:13:28.738 : en:01:13:28.738
01:19:48.742 : en:01:19:48.742
01:23:33.508 : en:01:23:33.508
01:28:45.111 : en:01:28:45.111
01:33:08.374 : en:01:33:08.374
01:38:17.892 : en:01:38:17.892
01:43:13.479 : en:01:43:13.479
01:47:43.457 : en:01:47:43.457
Скриншоты
Скачать

Скачать торрент!

Как скачивать? · Что такое торрент? · Рейтинг и ограничения

Сайт не распространяет и не хранит электронные версии произведений, а лишь предоставляет доступ к создаваемому пользователями каталогу ссылок на торрент-файлы, которые содержат только списки хеш-сумм

[Профиль] [ЛС]
Показать сообщения:    
Ответить на тему

Текущее время: Сегодня 00:17

Часовой пояс: GMT + 4



Вы не можете начинать темы
Вы не можете отвечать на сообщения
Вы не можете редактировать свои сообщения
Вы не можете удалять свои сообщения
Вы не можете голосовать в опросах
Вы не можете прикреплять файлы к сообщениям
Вы не можете скачивать файлы