Возмездие / The Railway Man (Джонатан Теплицки / Jonathan Teplitzky) [2013, Австралия, Великобритания, драма, биография, BDRip 720p] DVO (Пиратская студия) + VO (R.A.I.M) + Subs Rus, Eng + Original Eng

Ответить на тему
 
Автор Сообщение

user ®

Стаж: 7 лет 7 месяцев

Сообщений: 20008

Пост Пост: #1 от 08-Май-2014 00:45

[Цитировать]

Возмездие / The Railway Man
Страна: Австралия, Великобритания
Студия: Archer Street Productions, Latitude Media
Жанр: драма, биография
Год выпуска: 2013
Продолжительность: 01:56:19
Перевод 1: Любительский (двухголосый закадровый) Пиратская студия
Перевод 2: Одноголосый закадровый R.A.I.M
Cубтитры: английские, русские (перевод Gorushka)
Оригинальная аудиодорожка: английский
Режиссер: Джонатан Теплицки / Jonathan Teplitzky
В ролях: Джереми Ирвин, Колин Ферт, Стеллан Скарсгард, Майкл МакКензи, Николь Кидман, Джеффри Даунтон, Танрох Ишида, Том Стоукс, Брайан Пробетс, Том Хоббс
Описание: В основе фильма – реальная история и одноименный роман ветерана Второй мировой войны. Английский офицер Эрик Ломакс после капитуляции в Сингапуре оказался в японском плену в оккупированном Японией Таиланде, где при строительстве железной дороги погибло более ста тысяч военнопленных. Выпавшие на долю Эрика испытания были ужасающими даже в сравнении с участью тех несчастных, которым удалось уцелеть на строительстве "Дороги смерти" в долине река Квай. Эти годы не прошли бесследно для его психики. И лишь спустя десятилетия, благодаря поддержке друзей, мудрости жены Патти и решимости встретиться со своим мучителем-японцем, война для него наконец закончилась.

Тип релиза: BDRip 720p [AMIABLE]
Контейнер: MKV
Видео: MPEG4 AVC Video, H264, 2.40:1, 1280x528, 23,976 fps, 5215 kbps
Аудио 1: Русский (AC3, 6 ch, 384 kbps, 16 bits, 48.0 KHz)
Аудио 2: Русский (AC3, 2 ch, 192 kbps, 16 bits, 44.1 KHz)
Аудио 3: Английский (AC3, 6 ch, 512 kbps, 16 bits, 48.0 KHz)
Формат субтитров: softsub (SRT)
MediaInfo
Общее
Уникальный идентификатор : 246399897486383631449187660654724719182 (0xB95EE4E2D6EE094C8DCBE313E8F3224E)
Полное имя : J:\Vozmezdie.2013.x264.BDRip(720p).mkv
Формат : Matroska
Версия формата : Version 1
Размер файла : 5,12 Гбайт
Продолжительность : 1 ч. 56 м.
Общий поток : 6303 Кбит/сек
Дата кодирования : UTC 2014-05-05 17:15:27
Программа кодирования : mkvmerge v2.0.2 ('You're My Flame') built on Feb 21 2007 23:40:55
Библиотека кодирования : libebml v0.7.7 + libmatroska v0.8.1
Видео
Идентификатор : 1
Формат : AVC
Формат/Информация : Advanced Video Codec
Профиль формата : High@L4.1
Параметр CABAC формата : Да
Параметр ReFrames формата : 5 кадров
Идентификатор кодека : V_MPEG4/ISO/AVC
Продолжительность : 1 ч. 56 м.
Битрейт : 5215 Кбит/сек
Ширина : 1280 пикселей
Высота : 528 пикселей
Соотношение сторон : 2,40:1
Режим частоты кадров : Постоянный
Частота кадров : 23,976 кадра/сек
Цветовое пространство : YUV
Субдискретизация насыщенности : 4:2:0
Битовая глубина : 8 бит
Тип развёртки : Прогрессивная
Бит/(Пиксели*Кадры) : 0.322
Размер потока : 4,14 Гбайт (81%)
Библиотека кодирования : x264 core 142 r2409 d6b4e63
Настройки программы : cabac=1 / ref=5 / deblock=1:-3:-3 / analyse=0x3:0x113 / me=umh / subme=8 / psy=1 / psy_rd=1.00:0.00 / mixed_ref=1 / me_range=16 / chroma_me=1 / trellis=1 / 8x8dct=1 / cqm=0 / deadzone=21,11 / fast_pskip=1 / chroma_qp_offset=-2 / threads=12 / lookahead_threads=2 / sliced_threads=0 / nr=0 / decimate=1 / interlaced=0 / bluray_compat=0 / constrained_intra=0 / bframes=3 / b_pyramid=2 / b_adapt=2 / b_bias=0 / direct=3 / weightb=1 / open_gop=0 / weightp=2 / keyint=240 / keyint_min=24 / scenecut=40 / intra_refresh=0 / rc_lookahead=50 / rc=2pass / mbtree=1 / bitrate=5215 / ratetol=1.0 / qcomp=0.60 / qpmin=0 / qpmax=69 / qpstep=4 / cplxblur=20.0 / qblur=0.5 / ip_ratio=1.40 / aq=1:1.00
Default : Да
Forced : Нет
Аудио #1
Идентификатор : 2
Формат : AC-3
Формат/Информация : Audio Coding 3
Расширение режима : CM (complete main)
Параметр Endianness формата : Big
Идентификатор кодека : A_AC3
Продолжительность : 1 ч. 56 м.
Вид битрейта : Постоянный
Битрейт : 384 Кбит/сек
Каналы : 6 каналов
Расположение каналов : Front: L C R, Side: L R, LFE
Частота : 48,0 КГц
Битовая глубина : 16 бит
Метод сжатия : С потерями
Размер потока : 319 Мбайт (6%)
Язык : Russian
Default : Да
Forced : Нет
Аудио #2
Идентификатор : 3
Формат : AC-3
Формат/Информация : Audio Coding 3
Расширение режима : CM (complete main)
Параметр Endianness формата : Big
Идентификатор кодека : A_AC3
Продолжительность : 1 ч. 56 м.
Вид битрейта : Постоянный
Битрейт : 192 Кбит/сек
Каналы : 2 канала
Расположение каналов : Front: L R
Частота : 44,1 КГц
Битовая глубина : 16 бит
Метод сжатия : С потерями
Размер потока : 160 Мбайт (3%)
Язык : Russian
Default : Нет
Forced : Нет
Аудио #3
Идентификатор : 4
Формат : AC-3
Формат/Информация : Audio Coding 3
Расширение режима : CM (complete main)
Параметр Endianness формата : Big
Идентификатор кодека : A_AC3
Продолжительность : 1 ч. 56 м.
Вид битрейта : Постоянный
Битрейт : 512 Кбит/сек
Каналы : 6 каналов
Расположение каналов : Front: L C R, Side: L R, LFE
Частота : 48,0 КГц
Битовая глубина : 16 бит
Метод сжатия : С потерями
Размер потока : 426 Мбайт (8%)
Язык : English
Default : Нет
Forced : Нет
Текст #1
Идентификатор : 5
Формат : UTF-8
Идентификатор кодека : S_TEXT/UTF8
Идентификатор кодека/Информация : UTF-8 Plain Text
Язык : Russian
Default : Нет
Forced : Нет
Текст #2
Идентификатор : 6
Формат : UTF-8
Идентификатор кодека : S_TEXT/UTF8
Идентификатор кодека/Информация : UTF-8 Plain Text
Язык : English
Default : Нет
Forced : Нет
Меню
00:00:00.000 : en:00:00:00.000
00:15:30.888 : en:00:15:30.888
00:28:08.437 : en:00:28:08.437
00:45:06.078 : en:00:45:06.078
01:03:45.030 : en:01:03:45.030
01:13:11.762 : en:01:13:11.762
01:29:38.623 : en:01:29:38.623
01:48:52.401 : en:01:48:52.401
Скриншоты
Скачать

Скачать торрент!

Как скачивать? · Что такое торрент? · Рейтинг и ограничения

Сайт не распространяет и не хранит электронные версии произведений, а лишь предоставляет доступ к создаваемому пользователями каталогу ссылок на торрент-файлы, которые содержат только списки хеш-сумм

[Профиль] [ЛС]
Показать сообщения:    
Ответить на тему

Текущее время: Сегодня 19:38

Часовой пояс: GMT + 4



Вы не можете начинать темы
Вы не можете отвечать на сообщения
Вы не можете редактировать свои сообщения
Вы не можете удалять свои сообщения
Вы не можете голосовать в опросах
Вы не можете прикреплять файлы к сообщениям
Вы не можете скачивать файлы