Паганини: Скрипач Дьявола / The Devil’s Violinist (Бернард Роуз / Bernard Rose) [2013, Германия, Италия, мелодрама, драма, музыка, BDRip 1080p] Dub + Original (Eng) + Sub (Ger)

Ответить на тему
 
Автор Сообщение

user ®

Стаж: 7 лет 7 месяцев

Сообщений: 20008

Пост Пост: #1 от 08-Май-2014 00:45

[Цитировать]

Паганини: Скрипач Дьявола / The Devil’s Violinist Страна: Германия, Италия
Жанр: мелодрама, драма, музыка
Год выпуска: 2013
Продолжительность: 02:02:39
Перевод: Профессиональный (дублированный) R5
Cубтитры: немецкие, английские (форсированные на немецкий хардсаб в конечных титрах)
Оригинальная аудиодорожка: английский
Режиссер: Бернард Роуз / Bernard Rose
В ролях: Дэвид Гэрретт, Джаред Харрис, Андреа Дэк, Кристиан МакКэй, Джоэли Ричардсон, Вероника Феррес, Оливия д’Або, Хельмут Бергер, Томас Антон, Питер Р. Бишоп
Описание:
Имя скрипача Никколо Паганини еще при жизни стало легендой. Что не удивительно, ведь его непревзойденный талант покорил сначала Париж, потом всю Европу, а затем и весь мир. Сама личность Паганини, окутанная ореолом мистики и таинственности, неизбежно привела к возникновению самых разнообразных слухов. Среди них была и уверенность в том, что он продал душу дьяволу, чтобы обрести свой талант. Слава и развращает, и мучает музыканта, вино и опиум приносят лишь временное утешение, и все больше ощущается странная всепоглощающая пустота…
Во время гастролей в Лондоне Паганини встречает девушку с ангельским голосом и чистой душой, которую, казалось, ему было суждено повстречать. Но сможет ли человек, играющий на дьявольской скрипке, познать счастье? Или за дар придется расплачиваться единственной любовью?
- ||-Тип релиза: BDRip 1080p (рип от Shahar31@DON)
Контейнер: MKV
Видео: AVC (x264), 1920x816 (2,35:1) at 24,000 fps, 15900 Кbps, 0.423 bpp
Аудио 1: AC3; 384 Kbps; CBR; 6 ch; 48 khz | Дубляж |
Аудио 2: DTS; 1536 Kbps; CBR; 6 ch; 48 khz | Английский |
Формат субтитров: softsub (SRT)

Скриншоты || x264 Info || MediaInfo || Notes
Notes: Спектр дорожки с DVD не дотягивал до битрейта 448 - по этому после перетяжки, звук был собран c битрейтом 384
MediaInfo
Общее
Уникальный идентификатор                 : 198429491781636774285938547084502242219 (0x954821482688471CAF986C70BED013AB)
Полное имя                               : Паганини. Скрипач Дьявола.2013.D.1080p.BluRay.x264-DON.mkv
Формат                                   : Matroska
Версия формата                           : Version 4 / Version 2
Размер файла                             : 15,6 Гбайт
Продолжительность                        : 2 ч. 2 м.
Общий поток                              : 18,2 Мбит/сек
Название фильма                          : The Devil’s Violinist [1080p] [2013] Dub
Дата кодирования                         : UTC 2014-05-06 00:10:48
Программа кодирования                    : mkvmerge v6.9.1 ('Blue Panther') 32bit built on Apr 18 2014 18:15:44
Библиотека кодирования                   : libebml v1.3.0 + libmatroska v1.4.1
Видео
Идентификатор                            : 1
Формат                                   : AVC
Формат/Информация                        : Advanced Video Codec
Профиль формата                          : High@L4.1
Параметр CABAC формата                   : Да
Параметр ReFrames формата                : 5 кадров
Идентификатор кодека                     : V_MPEG4/ISO/AVC
Продолжительность                        : 2 ч. 2 м.
Битрейт                                  : 15,9 Мбит/сек
Ширина                                   : 1920 пикселей
Высота                                   : 816 пикселей
Соотношение сторон                       : 2,35:1
Режим частоты кадров                     : Постоянный
Частота кадров                           : 24,000 кадра/сек
Цветовое пространство                    : YUV
Субдискретизация насыщенности            : 4:2:0
Битовая глубина                          : 8 бит
Тип развёртки                            : Прогрессивная
Бит/(Пиксели*Кадры)                      : 0.423
Размер потока                            : 13,6 Гбайт (88%)
Заголовок                                : profile.php?mode=viewprofile&u=22488948
Библиотека кодирования                   : x264 core 140 r2377+40 929f149 tMod [8-bit@4:2:0 X86]
Настройки программы                      : cabac=1 / ref=5 / deblock=1:-3:-3 / analyse=0x3:0x113 / me=umh / subme=10 / psy=1 / fade_compensate=0.00 / psy_rd=1.10:0.00 / mixed_ref=1 / me_range=32 / chroma_me=1 / trellis=2 / 8x8dct=1 / cqm=0 / deadzone=21,11 / fast_pskip=0 / chroma_qp_offset=-2 / threads=12 / lookahead_threads=2 / sliced_threads=0 / nr=0 / decimate=0 / interlaced=0 / bluray_compat=0 / constrained_intra=0 / fgo=0 / bframes=8 / b_pyramid=2 / b_adapt=2 / b_bias=0 / direct=3 / weightb=1 / open_gop=0 / weightp=2 / keyint=250 / keyint_min=23 / scenecut=40 / intra_refresh=0 / rc=crf / mbtree=0 / crf=17.0000 / qcomp=0.70 / qpmin=0:0:0 / qpmax=69:69:69 / qpstep=4 / ip_ratio=1.30 / pb_ratio=1.10 / aq=4:0.90 / aq-sensitivity=10.00 / aq-factor=1.00:1.00:1.00 / aq2=0 / aq3=0
Язык                                     : English
Default                                  : Да
Forced                                   : Нет
Аудио #1
Идентификатор                            : 2
Формат                                   : AC-3
Формат/Информация                        : Audio Coding 3
Расширение режима                        : CM (complete main)
Параметр Endianness формата              : Big
Идентификатор кодека                     : A_AC3
Продолжительность                        : 2 ч. 2 м.
Вид битрейта                             : Постоянный
Битрейт                                  : 384 Кбит/сек
Каналы                                   : 6 каналов
Расположение каналов                     : Front: L C R, Side: L R, LFE
Частота                                  : 48,0 КГц
Битовая глубина                          : 16 бит
Метод сжатия                             : С потерями
Размер потока                            : 337 Мбайт (2%)
Заголовок                                : Dub
Язык                                     : Russian
Default                                  : Да
Forced                                   : Нет
Аудио #2
Идентификатор                            : 3
Формат                                   : DTS
Формат/Информация                        : Digital Theater Systems
Режим                                    : 16
Параметр Endianness формата              : Big
Идентификатор кодека                     : A_DTS
Продолжительность                        : 2 ч. 2 м.
Вид битрейта                             : Постоянный
Битрейт                                  : 1509 Кбит/сек
Каналы                                   : 6 каналов
Расположение каналов                     : Front: L C R, Side: L R, LFE
Частота                                  : 48,0 КГц
Битовая глубина                          : 24 бит
Метод сжатия                             : С потерями
Размер потока                            : 1,29 Гбайт (8%)
Язык                                     : English
Default                                  : Нет
Forced                                   : Нет
Текст #1
Идентификатор                            : 4
Формат                                   : UTF-8
Идентификатор кодека                     : S_TEXT/UTF8
Идентификатор кодека/Информация          : UTF-8 Plain Text
Заголовок                                : forced
Язык                                     : English
Default                                  : Да
Forced                                   : Нет
Текст #2
Идентификатор                            : 5
Формат                                   : UTF-8
Идентификатор кодека                     : S_TEXT/UTF8
Идентификатор кодека/Информация          : UTF-8 Plain Text
Язык                                     : German
Default                                  : Нет
Forced                                   : Нет
Меню
00:00:00.000                             : en:Chapter 1
00:11:39.417                             : en:Chapter 2
00:21:05.625                             : en:Chapter 3
00:30:51.917                             : en:Chapter 4
00:41:13.292                             : en:Chapter 5
00:51:46.792                             : en:Chapter 6
01:03:02.500                             : en:Chapter 7
01:13:38.250                             : en:Chapter 8
01:25:15.583                             : en:Chapter 9
01:35:52.667                             : en:Chapter 10
01:45:50.708                             : en:Chapter 11
01:55:37.250                             : en:Chapter 12
Скачать

Скачать торрент!

Как скачивать? · Что такое торрент? · Рейтинг и ограничения

Сайт не распространяет и не хранит электронные версии произведений, а лишь предоставляет доступ к создаваемому пользователями каталогу ссылок на торрент-файлы, которые содержат только списки хеш-сумм

[Профиль] [ЛС]
Показать сообщения:    
Ответить на тему

Текущее время: Сегодня 14:11

Часовой пояс: GMT + 4



Вы не можете начинать темы
Вы не можете отвечать на сообщения
Вы не можете редактировать свои сообщения
Вы не можете удалять свои сообщения
Вы не можете голосовать в опросах
Вы не можете прикреплять файлы к сообщениям
Вы не можете скачивать файлы