Крутящий момент / Torque (Джозеф Кан / Joseph Kahn) [2004, США, Австралия, боевик, триллер, BDRip 1080p] Dub + 2x MVO + Sub Rus, Eng + Original Eng

Ответить на тему
 
Автор Сообщение

user ®

Стаж: 7 лет 7 месяцев

Сообщений: 20008

Пост Пост: #1 от 08-Май-2014 00:45

[Цитировать]

Крутящий моментTorque- Страна: США, Австралия
Жанр: боевик, триллер
Год выпуска: 2004
Продолжительность: 01:24:03
Перевод: Профессиональный (дублированный)
Перевод 2: Профессиональный (многоголосый закадровый)
Перевод 3: Профессиональный (многоголосый закадровый)
Cубтитры: русские, английские (полные, SDH)
Оригинальная аудиодорожка: английский
Режиссер: Джозеф Кан / Joseph Kahn
В ролях: Джон Ашкер, Макс Бисли, Дейн Кук, Айс Кьюб, Джон До, Гичи Гамба, Лэнс Гилберт, Мартин Хендерсон, Джей Эрнандес, Уилл Юн Ли
Описание: Вернувшись в родной город к любимой девушке, байкер Кери Форд оказывается в западне: против него фабрикуют уголовное дело об убийстве, которого он никогда не совершал. Форд становится мишенью агрессивных выпадов со стороны брата жертвы, ослепленного идеей отмщения, и объектом преследования агентов ФБР.
Кери Форд во что бы то ни стало намерен восстановить свое доброе имя и выследить преступников...

MPAA: PG-13 - Детям до 13 лет просмотр не желателен-Сэмпл: http://multi-up.com/971967
Автор рипа: Vikosol
Тип релиза: BDRip 1080p [Torque (2003) Blu-ray Disc -BLUEBIRD]
Контейнер: MKV
Видео: MPEG-4 AVC, 1920x804 (2.40:1), 16148 kbps, 23,976 fps, 0,436 bpp
Аудио №1: русский / AC3 / 5.1 / 48 kHz / 384 kbps / 16 bit |DUB|
Аудио №2: русский / AC3 / 5.1 / 48 kHz / 384 kbps / 16 bit |MVO #1|
Аудио №3: русский / AC3 / 2.0 / 48 kHz / 192 kbps / 16 bit |MVO #2|
Аудио №4: украинский / AC3 / 2.0 / 48 kHz / 192 kbps / 16 bit |MVO - ТК "К1"|
Аудио №5: английский / DTS / 5.1 / 48 kHz / 1510 kbps / 24 bit
Навигация по главам: есть
Формат субтитров: softsub (SRT)
source vs rip log x264
x264 [info]: frame I:938   Avg QP:18.03  size:200708
x264 [info]: frame P:30621 Avg QP:19.41  size:115761
x264 [info]: frame B:89372 Avg QP:21.51  size: 74850
x264 [info]: consecutive B-frames:  5.1%  4.9%  6.9% 28.9% 15.3% 24.5%  6.6%  5.9%  1.5%  0.4%
x264 [info]: mb I  I16..4:  2.5% 88.7%  8.8%
x264 [info]: mb P  I16..4:  2.1% 44.1%  2.3%  P16..4: 19.5% 24.2%  6.6%  0.6%  0.0%    skip: 0.7%
x264 [info]: mb B  I16..4:  0.2% 11.3%  0.5%  B16..8: 36.4% 25.0%  5.9%  direct: 9.0%  skip:11.6%  L0:43.2% L1:41.0% BI:15.8%
x264 [info]: 8x8 transform intra:92.2% inter:65.8%
x264 [info]: coded y,uvDC,uvAC intra: 93.1% 90.4% 64.7% inter: 53.9% 48.5% 13.3%
x264 [info]: i16 v,h,dc,p: 18% 18%  5% 59%
x264 [info]: i8 v,h,dc,ddl,ddr,vr,hd,vl,hu:  8%  7% 11% 11% 14% 12% 12% 12% 14%
x264 [info]: i4 v,h,dc,ddl,ddr,vr,hd,vl,hu: 31% 10%  6%  7% 10%  9% 10%  7%  9%
x264 [info]: i8c dc,h,v,p: 39% 22% 17% 22%
x264 [info]: Weighted P-Frames: Y:4.0% UV:3.0%
x264 [info]: ref P L0: 49.0%  8.6% 22.7% 10.0%  8.5%  1.1%  0.0%
x264 [info]: ref B L0: 79.4% 14.7%  4.6%  1.3%
x264 [info]: ref B L1: 93.1%  6.9%
x264 [info]: kb/s:16531.06
MediaInfo
Format                           : Matroska
Format version                   : Version 4 / Version 2
File size                        : 11.3 GiB
Duration                         : 1h 24mn
Overall bit rate                 : 19.2 Mbps
Encoded date                     : UTC 2014-05-06 09:52:31
Writing application              : mkvmerge v6.8.0 ('Theme for Great Cities') 64bit built on Mar  2 2014 21:34:26
Writing library                  : libebml v1.3.0 + libmatroska v1.4.1
Video
ID                               : 1
Format                           : AVC
Format/Info                      : Advanced Video Codec
Format profile                   : High@L4.1
Format settings, CABAC           : Yes
Format settings, ReFrames        : 5 frames
Codec ID                         : V_MPEG4/ISO/AVC
Duration                         : 1h 24mn
Bit rate                         : 16.1 Mbps
Width                            : 1 920 pixels
Height                           : 804 pixels
Display aspect ratio             : 2.40:1
Frame rate                       : 23.976 fps
Color space                      : YUV
Chroma subsampling               : 4:2:0
Bit depth                        : 8 bits
Scan type                        : Progressive
Bits/(Pixel*Frame)               : 0.436
Stream size                      : 9.48 GiB (84%)
Writing library                  : x264 core 142 r2431kMod ac76440
Encoding settings                : cabac=1 / ref=5 / deblock=1:-3:-3 / analyse=0x3:0x133 / me=umh / subme=11 / psy=1 / fade_compensate=0.00 / psy_rd=1.00:0.05 / mixed_ref=1 / me_range=24 / chroma_me=1 / trellis=2 / 8x8dct=1 / cqm=0 / deadzone=21,11 / fast_pskip=0 / chroma_qp_offset=-3 / threads=6 / lookahead_threads=1 / sliced_threads=0 / nr=0 / decimate=0 / interlaced=0 / bluray_compat=0 / constrained_intra=0 / fgo=0 / bframes=9 / b_pyramid=2 / b_adapt=2 / b_bias=0 / direct=1 / weightb=1 / open_gop=0 / weightp=2 / keyint=240 / keyint_min=23 / scenecut=40 / intra_refresh=0 / rc_lookahead=60 / rc=crf / mbtree=0 / crf=19.0000 / qcomp=0.65 / qpmin=0 / qpmax=69 / qpstep=4 / vbv_maxrate=50000 / vbv_bufsize=62500 / crf_max=0.0 / nal_hrd=none / filler=0 / ip_ratio=1.40 / pb_ratio=1.20 / aq=1:0.80
Language                         : English
Audio #1
ID                               : 2
Format                           : AC-3
Format/Info                      : Audio Coding 3
Mode extension                   : CM (complete main)
Codec ID                         : A_AC3
Duration                         : 1h 24mn
Bit rate mode                    : Constant
Bit rate                         : 384 Kbps
Channel(s)                       : 6 channels
Channel positions                : Front: L C R, Side: L R, LFE
Sampling rate                    : 48.0 KHz
Bit depth                        : 16 bits
Compression mode                 : Lossy
Stream size                      : 231 MiB (2%)
Title                            : DUB - R5
Language                         : Russian
Audio #2
ID                               : 3
Format                           : AC-3
Format/Info                      : Audio Coding 3
Mode extension                   : CM (complete main)
Codec ID                         : A_AC3
Duration                         : 1h 24mn
Bit rate mode                    : Constant
Bit rate                         : 384 Kbps
Channel(s)                       : 6 channels
Channel positions                : Front: L C R, Side: L R, LFE
Sampling rate                    : 48.0 KHz
Bit depth                        : 16 bits
Compression mode                 : Lossy
Stream size                      : 231 MiB (2%)
Title                            : MVO #1
Language                         : Russian
Audio #3
ID                               : 4
Format                           : AC-3
Format/Info                      : Audio Coding 3
Format profile                   : Dolby Digital
Mode extension                   : CM (complete main)
Codec ID                         : A_AC3
Duration                         : 1h 24mn
Bit rate mode                    : Constant
Bit rate                         : 192 Kbps
Channel(s)                       : 2 channels
Channel positions                : Front: L R
Sampling rate                    : 48.0 KHz
Bit depth                        : 16 bits
Compression mode                 : Lossy
Stream size                      : 115 MiB (1%)
Title                            : MVO #2
Language                         : Russian
Audio #4
ID                               : 5
Format                           : AC-3
Format/Info                      : Audio Coding 3
Format profile                   : Dolby Digital
Mode extension                   : CM (complete main)
Codec ID                         : A_AC3
Duration                         : 1h 24mn
Bit rate mode                    : Constant
Bit rate                         : 192 Kbps
Channel(s)                       : 2 channels
Channel positions                : Front: L R
Sampling rate                    : 48.0 KHz
Bit depth                        : 16 bits
Compression mode                 : Lossy
Stream size                      : 115 MiB (1%)
Title                            : MVO - ТК "К1"
Language                         : Ukrainian
Audio #5
ID                               : 6
Format                           : DTS
Format/Info                      : Digital Theater Systems
Codec ID                         : A_DTS
Duration                         : 1h 24mn
Bit rate mode                    : Constant
Bit rate                         : 1 510 Kbps
Channel(s)                       : 6 channels
Channel positions                : Front: L C R, Side: L R, LFE
Sampling rate                    : 48.0 KHz
Bit depth                        : 24 bits
Compression mode                 : Lossy
Stream size                      : 908 MiB (8%)
Language                         : English
Text #1
ID                               : 7
Format                           : UTF-8
Codec ID                         : S_TEXT/UTF8
Codec ID/Info                    : UTF-8 Plain Text
Language                         : Russian
Text #2
ID                               : 8
Format                           : UTF-8
Codec ID                         : S_TEXT/UTF8
Codec ID/Info                    : UTF-8 Plain Text
Title                            : Full
Language                         : English
Text #3
ID                               : 9
Format                           : UTF-8
Codec ID                         : S_TEXT/UTF8
Codec ID/Info                    : UTF-8 Plain Text
Title                            : SDH
Language                         : English
Menu
00:00:00.000                     : :Chapter 01
00:01:54.989                     : :Chapter 02
00:05:24.991                     : :Chapter 03
00:07:23.901                     : :Chapter 04
00:11:16.342                     : :Chapter 05
00:14:47.928                     : :Chapter 06
00:17:36.889                     : :Chapter 07
00:21:06.265                     : :Chapter 08
00:25:56.263                     : :Chapter 09
00:28:54.149                     : :Chapter 10
00:31:57.040                     : :Chapter 11
00:34:29.400                     : :Chapter 12
00:37:17.818                     : :Chapter 13
00:41:46.754                     : :Chapter 14
00:43:36.989                     : :Chapter 15
00:46:13.604                     : :Chapter 16
00:50:03.125                     : :Chapter 17
00:53:02.012                     : :Chapter 18
00:57:10.552                     : :Chapter 19
01:01:33.773                     : :Chapter 20
01:06:29.068                     : :Chapter 21
01:10:30.142                     : :Chapter 22
01:13:06.965                     : :Chapter 23
01:15:17.888                     : :Chapter 24
01:17:30.437                     : :Chapter 25
01:20:08.428                     : :Chapter 26
01:24:03.580                     : :Chapter 27
Скриншоты
Скачать

Скачать торрент!

Как скачивать? · Что такое торрент? · Рейтинг и ограничения

Сайт не распространяет и не хранит электронные версии произведений, а лишь предоставляет доступ к создаваемому пользователями каталогу ссылок на торрент-файлы, которые содержат только списки хеш-сумм

[Профиль] [ЛС]
Показать сообщения:    
Ответить на тему

Текущее время: Сегодня 14:45

Часовой пояс: GMT + 4



Вы не можете начинать темы
Вы не можете отвечать на сообщения
Вы не можете редактировать свои сообщения
Вы не можете удалять свои сообщения
Вы не можете голосовать в опросах
Вы не можете прикреплять файлы к сообщениям
Вы не можете скачивать файлы