Великий Бак Ховард / The Great Buck Howard (Шон МакГинли / Sean McGinly) [2008, США, драма, комедия, BDRip 720p] MVO (R5) + Sub Rus, Ukr, Eng + Original Eng

Ответить на тему
 
Автор Сообщение

user ®

Стаж: 7 лет 7 месяцев

Сообщений: 20008

Пост Пост: #1 от 08-Май-2014 00:45

[Цитировать]

Великий Бак Ховард / The Great Buck Howard
«Get ready for the comeback of a lifetime»- Страна: США
Студия: Bristol Bay Productions
Жанр: драма, комедия
Год выпуска: 2008
Продолжительность: 01:30:22-Перевод: Профессиональный (многоголосый закадровый) R5 (West Video)
Cубтитры: русские, английские, украинские
Оригинальная аудиодорожка: английский-Режиссер: Шон МакГинли / Sean McGinly
В ролях: Колин Хэнкс, Том Хэнкс, Джон Малкович, Б.Дж. Хендрикс, Том Арнольд, Жаки Барнбрук, Анкур Бхатт, Дэвид Блейн, Эмили Блант, Гриффин Данн
Описание: В «Великом Баке Говарде» герой загорается желанием стать учеником незадачливого сценического мага, тем самым — провоцируя размолвку с собственным родителем, оказавшимся не в восторге от новой профессии отпрыска.-Рип от DON
Сэмпл: sendfile→ rusfolder→
Тип релиза: BDRip 720p
Контейнер: MKV
Видео: 1280 x 694 (1.844), x264, 2pass, L4.1, 23,976 fps, 8825 Kbps
Аудио: 48 kHz, DD 5.1 - 384 kbps |MVO, R5|
Аудио 2: 48 kHz, DTS 5.1 - 1536 kbps |Оригинал|
Аудио 3: 48 kHz, Vorbis 2.0 - 80 kbps|Комментарии|
MediaInfo
Полное имя : The.Great.Buck.Howard.2008.720p.BluRay.DTS.x264-DON.Rus.Eng.mkv
Формат : Matroska
Версия формата : Version 4 / Version 2
Размер файла : 6.80 GiB
Продолжительность : 1h 30mn
Режим общего битрейта : Variable
Общий поток : 10.8 Mbps
Название фильма : The Great Buck Howard (2008) | Rip by DON
Дата кодирования : UTC 2014-04-25 14:45:19
Программа кодирования : mkvmerge v6.5.0 ('Isn't she lovely') built on Oct 20 2013 12:50:05
Библиотека кодирования : libebml v1.3.0 + libmatroska v1.4.1
Attachment : Yes / Yes / Yes
Video
Идентификатор : 1
Формат : AVC
Формат/Информация : Advanced Video Codec
Профиль формата : High@L4.1
Параметр CABAC формата : Yes
Параметр ReFrames формата : 8 frames
Идентификатор кодека : V_MPEG4/ISO/AVC
Продолжительность : 1h 30mn
Битрейт : 8 825 Kbps
Ширина : 1 280 pixels
Высота : 694 pixels
Соотношение сторон : 1.85:1
Режим частоты кадров : Constant
Частота кадров : 23.976 fps
Цветовое пространство : YUV
Субдискретизация насыщенности : 4:2:0
Битовая глубина : 8 bits
Тип развёртки : Progressive
Бит/(Пиксели*Кадры) : 0.414
Размер потока : 5.42 GiB (80%)
Заголовок : The Great Buck Howard (2008) by Djex
Библиотека кодирования : x264 core 68 r1193M 0538c56
Настройки программы : cabac=1 / ref=8 / deblock=1:-3:-3 / analyse=0x3:0x113 / me=umh / subme=10 / psy_rd=1.1:0.0 / mixed_ref=1 / me_range=32 / chroma_me=1 / trellis=2 / 8x8dct=1 / cqm=0 / deadzone=21,11 / chroma_qp_offset=-2 / threads=6 / nr=0 / decimate=0 / mbaff=0 / bframes=4 / b_pyramid=1 / b_adapt=2 / b_bias=0 / direct=3 / wpredb=1 / keyint=250 / keyint_min=25 / scenecut=40 / rc=2pass / bitrate=8825 / ratetol=1.0 / qcomp=0.60 / qpmin=10 / qpmax=51 / qpstep=4 / cplxblur=20.0 / qblur=0.5 / ip_ratio=1.40 / pb_ratio=1.30 / aq=1:0.60
Язык : English
Default : Yes
Forced : No
Audio #1
Идентификатор : 2
Формат : AC-3
Формат/Информация : Audio Coding 3
Расширение режима : CM (complete main)
Параметр Endianness формата : Big
Идентификатор кодека : A_AC3
Продолжительность : 1h 30mn
Вид битрейта : Constant
Битрейт : 384 Kbps
Каналы : 6 channels
Расположение каналов : Front: L C R, Side: L R, LFE
Частота : 48.0 KHz
Битовая глубина : 16 bits
Метод сжатия : Lossy
Размер потока : 248 MiB (4%)
Заголовок : DD 5.1 - 384 kbps |MVO, R5|
Язык : Russian
Default : Yes
Forced : No
Audio #2
Идентификатор : 3
Формат : DTS
Формат/Информация : Digital Theater Systems
Режим : 16
Параметр Endianness формата : Big
Идентификатор кодека : A_DTS
Продолжительность : 1h 30mn
Вид битрейта : Constant
Битрейт : 1 509 Kbps
Каналы : 6 channels
Расположение каналов : Front: L C R, Side: L R, LFE
Частота : 48.0 KHz
Битовая глубина : 24 bits
Метод сжатия : Lossy
Размер потока : 975 MiB (14%)
Заголовок : DTS 5.1 - 1536 kbps |Оригинал|
Язык : English
Default : No
Forced : No
Audio #3
Идентификатор : 4
Формат : Vorbis
Параметр Floor формата : 1
Идентификатор кодека : A_VORBIS
Продолжительность : 1h 30mn
Вид битрейта : Variable
Битрейт : 80.0 Kbps
Каналы : 2 channels
Частота : 48.0 KHz
Метод сжатия : Lossy
Размер потока : 51.7 MiB (1%)
Заголовок : |Комментарии|
Библиотека кодирования : libVorbis 1.0 (UTC 2002-07-17)
Язык : English
Default : No
Forced : No
Text #1
Идентификатор : 5
Формат : UTF-8
Идентификатор кодека : S_TEXT/UTF8
Идентификатор кодека/Информация : UTF-8 Plain Text
Язык : Russian
Default : No
Forced : No
Text #2
Идентификатор : 6
Формат : UTF-8
Идентификатор кодека : S_TEXT/UTF8
Идентификатор кодека/Информация : UTF-8 Plain Text
Язык : Ukrainian
Default : No
Forced : No
Text #3
Идентификатор : 7
Формат : ASS
Идентификатор кодека : S_TEXT/ASS
Идентификатор кодека/Информация : Advanced Sub Station Alpha
Метод сжатия : Lossless
Язык : English
Default : No
Forced : No
Скриншоты -
Скачать

Скачать торрент!

Как скачивать? · Что такое торрент? · Рейтинг и ограничения

Сайт не распространяет и не хранит электронные версии произведений, а лишь предоставляет доступ к создаваемому пользователями каталогу ссылок на торрент-файлы, которые содержат только списки хеш-сумм

[Профиль] [ЛС]
Показать сообщения:    
Ответить на тему

Текущее время: Сегодня 22:33

Часовой пояс: GMT + 4



Вы не можете начинать темы
Вы не можете отвечать на сообщения
Вы не можете редактировать свои сообщения
Вы не можете удалять свои сообщения
Вы не можете голосовать в опросах
Вы не можете прикреплять файлы к сообщениям
Вы не можете скачивать файлы