Не называй меня малышкой / Колючая проволока / Barb Wire (Дэвид Хоган / David Hogan) [1996, США, фантастика, боевик, BDRip 720p] MVO + AVO (Володарский) + Original Eng + Sub Eng

Ответить на тему
 
Автор Сообщение

user ®

Стаж: 7 лет 7 месяцев

Сообщений: 20008

Пост Пост: #1 от 08-Май-2014 00:45

[Цитировать]

Не называй меня малышкой / Колючая проволока / Barb Wire- Год выпуска: 1996
Выпущено: США
Жанр: фантастика, боевик
Продолжительность: 01:38:20
Перевод: Профессиональный (многоголосый, закадровый)
+ Авторский одноголосый Л.Володарский
Оригинальная звуковая дорожка: English
Cубтитры: English-Режиссер: Дэвид Хоган / David Hogan
В ролях: Памела Андерсон, Темуэра Моррисон, Виктория Роуэлл, Джек Ноузуорти, Ксандер Беркли, Удо Кир, Андре Рози Браун, Клинт Ховард, Дженнифер Банко, Стив Рейлсбэк
О фильме: Америка охвачена второй гражданской войной. Единственным нейтральным городом остается Стил Харбор. А самое популярное место в Стил Харборе - гриль-бар «Дубовая голова». Имя его владелицы, красавицы по кличке «колючая проволока» окружено легендами. Когда эмоции в ее баре перехлестывают через край, она лично исполняет обязанности вышибалы, а вот справиться с ней не удавалось еще никому. Единственный человек о котором она заботилась - ее слепой младший брат Чарли.
Но вот в городе появляется Аксель Худ. Он должен переправить в Канаду доктора Тайру Армстронг, чтобы предупредить Комиссию по перемирию о страшном биологическом оружии, которое может повлечь за собой глобальную катастрофу. Акселю нужна помощь, и он знает, что оказать ее может лишь «Колючая проволока»....-SbR!
Релиз: by Skazhutin
Формат: MKV
Видео: 1280x692 at 23.976 fps, x264@L4.1, crf, ~8596 kbps avg
Аудио #01: Russian: 48 kHz, DTS, 3/2 (L,C,R,l,r) + LFE ch, ~768 kbps avg |Многоголосый закадровый, Blu-ray EUR|
Аудио #02: Russian: 48 kHz, AC3, 3/2 (L,C,R,l,r) + LFE ch, ~384 kbps avg |Одноголосый закадровый, Л. Володарский|
Аудио #03: English: 48 kHz/16-bit, DTS 5.1, ~1509 kbps avg
Семпл-Source~Encode
-
mInfo
Формат : Matroska
Версия формата : Version 4 / Version 2
Размер файла : 7,74 Гбайт
Продолжительность : 1 ч. 38 м.
Общий поток : 11,3 Мбит/сек
Название фильма : Barb Wire (1996) - Release for HDCLUB by SbR
Дата кодирования : UTC 2014-05-06 05:14:47
Программа кодирования : mkvmerge v6.9.1 ('Blue Panther') 64bit built on Apr 18 2014 18:23:38
Библиотека кодирования : libebml v1.3.0 + libmatroska v1.4.1
Attachment : Yes / Yes
Видео
Идентификатор : 1
Формат : AVC
Формат/Информация : Advanced Video Codec
Профиль формата : High@L4.1
Параметр CABAC формата : Да
Параметр ReFrames формата : 9 кадров
Идентификатор кодека : V_MPEG4/ISO/AVC
Продолжительность : 1 ч. 38 м.
Битрейт : 8376 Кбит/сек
Ширина : 1280 пикселей
Высота : 692 пикселя
Соотношение сторон : 1,85:1
Режим частоты кадров : Постоянный
Частота кадров : 23,976 кадра/сек
Цветовое пространство : YUV
Субдискретизация насыщенности : 4:2:0
Битовая глубина : 8 бит
Тип развёртки : Прогрессивная
Бит/(Пиксели*Кадры) : 0.394
Размер потока : 5,75 Гбайт (74%)
Заголовок : Release for HDCLUB
Библиотека кодирования : x264 core 142 r2431+42 c69a006 tMod [8-bit@4:2:0 X86_64]
Настройки программы : cabac=1 / ref=9 / deblock=1:-2:-2 / analyse=0x3:0x133 / me=umh / subme=11 / psy=1 / fade_compensate=0.00 / psy_rd=1.00:0.00 / mixed_ref=1 / me_range=32 / chroma_me=1 / trellis=2 / 8x8dct=1 / cqm=0 / deadzone=21,11 / fast_pskip=1 / chroma_qp_offset=-2 / threads=12 / lookahead_threads=2 / sliced_threads=0 / nr=0 / decimate=1 / interlaced=0 / bluray_compat=0 / constrained_intra=0 / fgo=0 / bframes=8 / b_pyramid=2 / b_adapt=2 / b_bias=0 / direct=1 / weightb=1 / open_gop=0 / weightp=2 / keyint=250 / keyint_min=23 / scenecut=40 / intra_refresh=0 / rc_lookahead=60 / rc=crf / mbtree=0 / crf=17.0000 / qcomp=0.60 / qpmin=0:0:0 / qpmax=69:69:69 / qpstep=4 / vbv_maxrate=62500 / vbv_bufsize=78125 / crf_max=0.0 / nal_hrd=none / filler=0 / ip_ratio=1.40 / pb_ratio=1.30 / aq=4:0.80 / aq-sensitivity=11.00 / aq-factor=1.00:1.00:1.00 / aq2=1:0.60 / aq2-sensitivity=9.00 / aq2-factor=1.00:1.00:1.00 / aq3=1:[0.60:0.60]:[0.60:0.60]:[0.60:0.60]:[0.60:0.60] / aq3-sensitivity=10.00 / aq3-factor=[1.00:1.00]:[1.00:1.00]:[1.00:1.00] / aq3-boundary=192:64:24
Язык : English
Default : Да
Forced : Нет
Основные цвета : BT.709
Характеристики трансфера : BT.709
Коэффициенты матрицы : BT.709
Аудио #1
Идентификатор : 2
Формат : DTS
Формат/Информация : Digital Theater Systems
Режим : 16
Параметр Endianness формата : Big
Идентификатор кодека : A_DTS
Продолжительность : 1 ч. 38 м.
Вид битрейта : Постоянный
Битрейт : 768 Кбит/сек
Каналы : 6 каналов
Расположение каналов : Front: L C R, Side: L R, LFE
Частота : 48,0 КГц
Битовая глубина : 24 бит
Метод сжатия : С потерями
Размер потока : 540 Мбайт (7%)
Заголовок : MVO
Язык : Russian
Default : Да
Forced : Нет
Аудио #2
Идентификатор : 3
Формат : AC-3
Формат/Информация : Audio Coding 3
Расширение режима : CM (complete main)
Параметр Endianness формата : Big
Идентификатор кодека : A_AC3
Продолжительность : 1 ч. 38 м.
Вид битрейта : Постоянный
Битрейт : 384 Кбит/сек
Каналы : 6 каналов
Расположение каналов : Front: L C R, Side: L R, LFE
Частота : 48,0 КГц
Битовая глубина : 16 бит
Метод сжатия : С потерями
Размер потока : 270 Мбайт (3%)
Заголовок : VO, Володарский
Язык : Russian
Default : Нет
Forced : Нет
Аудио #3
Идентификатор : 4
Формат : DTS
Формат/Информация : Digital Theater Systems
Режим : 16
Параметр Endianness формата : Big
Идентификатор кодека : A_DTS
Продолжительность : 1 ч. 38 м.
Вид битрейта : Постоянный
Битрейт : 1509 Кбит/сек
Каналы : 6 каналов
Расположение каналов : Front: L C R, Side: L R, LFE
Частота : 48,0 КГц
Битовая глубина : 24 бит
Метод сжатия : С потерями
Размер потока : 1,04 Гбайт (13%)
Язык : English
Default : Нет
Forced : Нет
Текст
Идентификатор : 5
Формат : UTF-8
Идентификатор кодека : S_TEXT/UTF8
Идентификатор кодека/Информация : UTF-8 Plain Text
Язык : English
Default : Нет
Forced : Нет
Меню
00:00:00.000 : en:Opening Credits
00:03:55.026 : en:Barb Wire to the Rescue
00:08:11.699 : en:Welcome to Steel Harbor
00:18:12.424 : en:Night on the Town
00:27:56.758 : en:Hammerhead Bar & Grille
00:34:07.336 : en:Axel's Only Hope
00:44:15.944 : en:The Resistance
00:48:44.379 : en:Let's Make a Deal
00:53:31.666 : en:Warrant for Barb's Arrest
00:55:33.538 : en:Police Raid
01:04:49.844 : en:Barb's Biggest Mistake
01:12:59.500 : en:The Exchange
01:19:29.765 : en:Barb Wire's Revenge
01:23:56.990 : en:The Last Crusade
01:30:13.199 : en:Escape From Steel Harbor
01:33:02.326 : en:Closing Credits

-
Цитата:
* Спасибо Тарантиныч за дорожку Володарского.
Скачать

Скачать торрент!

Как скачивать? · Что такое торрент? · Рейтинг и ограничения

Сайт не распространяет и не хранит электронные версии произведений, а лишь предоставляет доступ к создаваемому пользователями каталогу ссылок на торрент-файлы, которые содержат только списки хеш-сумм

[Профиль] [ЛС]
Показать сообщения:    
Ответить на тему

Текущее время: Сегодня 10:07

Часовой пояс: GMT + 4



Вы не можете начинать темы
Вы не можете отвечать на сообщения
Вы не можете редактировать свои сообщения
Вы не можете удалять свои сообщения
Вы не можете голосовать в опросах
Вы не можете прикреплять файлы к сообщениям
Вы не можете скачивать файлы