Помпеи / Pompeii (Пол У. С. Андерсон / Paul W.S. Anderson) [2014, Канада, Германия, боевик, драма, мелодрама, приключения , BDRip-AVC] Dub (Line) + Original (Eng)

Ответить на тему
 
Автор Сообщение

user ®

Стаж: 7 лет 7 месяцев

Сообщений: 20008

Пост Пост: #1 от 07-Май-2014 16:25

[Цитировать]

Помпеи / Pompeii
«Некоторые истории пишутся кровью»
- Страна: Канада, Германия | Constantin Film Produktion GmbH, Don Carmody Productions, FilmDistrict, Impact Pictures
Жанр: фэнтези, боевик, приключения
Год выпуска: 2014
Продолжительность: 01:44:59 час.
Перевод: Профессиональный (полное дублирование) - Line
Субтитры: Отсутствуют
Оригинальная аудиодорожка: Английская
Режиссер: Пол У. С. Андерсон / Paul W.S. Anderson
В ролях: Кит Харингтон, Эмили Браунинг, Кифер Сазерленд, Адевале Акинойе-Агбаже, Джаред Харрис, Кэрри-Энн Мосс, Джессика Лукас, Саша Ройз, Джо Пинг, Карри Грэм
Описание: История любви раба Майло и благородной Кассии, обрученной с римским сенатором, на фоне извержения Везувия, которое навсегда стерло с лица земли древнеримский город Помпеи…

Качество видео: BDRip-AVC | исх.Pompeii 2014 1080p BluRay AVC DTS HD MA 5 1 PublicHD => Сэмпл
Формат видео: MKV
Релиз от RG MATROSKA
Автор рипа zOJIOtOi
Видео: 1152x480p (2.40:1), 23,976 fps, H.264 ~3 600 kbps avg, 0.265 bit/pixel
Аудио #1: 48 kHz, AC3, 2 (L R) ch, ~320.00 kbps avg | Профессиональный (полное дублирование) - Line
Аудио #2: 48 kHz, AC3, 3/2 (L,C,R,l,r) + LFE ch, ~448.00 kbps avg | Оригинал (английский)
Формат субтитров: softsub (SRT)
MediaInfo | log x264
log x264
avs [info]: 1152x480p 1:1 @ 2997/125 fps (cfr)
x264 [info]: using SAR=1/1
x264 [info]: using cpu capabilities: MMX2 SSE2Fast SSSE3 SSE4.2 AVX
x264 [info]: profile High, level 4.1
x264 [info]: frame I:1536 Avg QP:16.23 size: 84686
x264 [info]: frame P:35143 Avg QP:18.10 size: 33430
x264 [info]: frame B:114353 Avg QP:19.94 size: 13361
x264 [info]: consecutive B-frames: 2.5% 2.9% 7.6% 37.0% 16.5% 24.3% 4.2% 3.3% 1.0% 0.3% 0.4%
x264 [info]: mb I I16..4: 4.9% 76.1% 19.1%
x264 [info]: mb P I16..4: 0.7% 17.1% 1.7% P16..4: 24.8% 30.1% 13.9% 2.7% 0.3% skip: 8.8%
x264 [info]: mb B I16..4: 0.1% 2.0% 0.2% B16..8: 33.4% 23.5% 5.4% direct: 6.7% skip:28.7% L0:43.0% L1:43.7% BI:13.3%
x264 [info]: 8x8 transform intra:85.9% inter:60.4%
x264 [info]: coded y,uvDC,uvAC intra: 93.5% 88.1% 68.3% inter: 34.7% 24.5% 5.3%
x264 [info]: i16 v,h,dc,p: 44% 9% 5% 42%
x264 [info]: i8 v,h,dc,ddl,ddr,vr,hd,vl,hu: 7% 7% 8% 10% 15% 14% 14% 12% 14%
x264 [info]: i4 v,h,dc,ddl,ddr,vr,hd,vl,hu: 8% 6% 5% 9% 16% 15% 14% 12% 13%
x264 [info]: i8c dc,h,v,p: 44% 21% 17% 18%
x264 [info]: Weighted P-Frames: Y:9.7% UV:4.8%
x264 [info]: ref P L0: 44.7% 13.0% 14.9% 6.3% 4.9% 3.8% 3.4% 2.1% 1.8% 1.4% 1.2% 1.1% 1.0% 0.2% 0.0%
x264 [info]: ref B L0: 73.5% 10.6% 5.2% 2.8% 2.1% 1.6% 1.3% 0.9% 0.7% 0.7% 0.4% 0.2%
x264 [info]: ref B L1: 93.5% 6.5%
x264 [info]: kb/s:3597.64
x264 [total]: encoded 151032 frames, 2.68 fps, 3597.64 kb/s
Общее
Уникальный идентификатор : 188970964227348718961423260097058978659 (0x8E2A7BDE69FA97EC858EE4F42BF03B63)
Полное имя : D:\\my rips\\Pompeii.2014.BDRip-AVC.Rus.Line.Eng.by.zOJIOtOi.mkv
Формат : Matroska
Версия формата : Version 4 / Version 2
Размер файла : 3,20 Гбайт
Продолжительность : 1 ч. 44 м.
Общий поток : 4368 Кбит/сек
Дата кодирования : UTC 2014-05-07 07:20:43
Программа кодирования : mkvmerge v6.1.0 (\'Old Devil\') built on Mar 4 2013 09:10:42
Библиотека кодирования : libebml v1.3.0 + libmatroska v1.4.0
Видео
Идентификатор : 1
Формат : AVC
Формат/Информация : Advanced Video Codec
Профиль формата : High@L4.1
Параметр CABAC формата : Да
Параметр ReFrames формата : 13 кадров
Идентификатор кодека : V_MPEG4/ISO/AVC
Продолжительность : 1 ч. 44 м.
Битрейт : 3513 Кбит/сек
Ширина : 1152 пикселя
Высота : 480 пикселей
Соотношение сторон : 2,40:1
Режим частоты кадров : Постоянный
Частота кадров : 23,976 кадра/сек
Цветовое пространство : YUV
Субдискретизация насыщенности : 4:2:0
Битовая глубина : 8 бит
Тип развёртки : Прогрессивная
Бит/(Пиксели*Кадры) : 0.265
Размер потока : 2,58 Гбайт (80%)
Заголовок : Pompeii.2014.BDRip-AVC.by.zOJIOtOi
Библиотека кодирования : x264 core 130 r2273 b3065e6
Настройки программы : cabac=1 / ref=13 / deblock=1:-3:-3 / analyse=0x3:0x133 / me=umh / subme=11 / psy=1 / psy_rd=1.00:0.00 / mixed_ref=1 / me_range=48 / chroma_me=1 / trellis=2 / 8x8dct=1 / cqm=0 / deadzone=21,11 / fast_pskip=1 / chroma_qp_offset=-2 / threads=6 / lookahead_threads=1 / sliced_threads=0 / nr=0 / decimate=1 / interlaced=0 / bluray_compat=0 / constrained_intra=0 / bframes=10 / b_pyramid=2 / b_adapt=2 / b_bias=0 / direct=1 / weightb=1 / open_gop=0 / weightp=2 / keyint=240 / keyint_min=23 / scenecut=40 / intra_refresh=0 / rc_lookahead=60 / rc=crf / mbtree=0 / crf=17.9 / qcomp=0.70 / qpmin=0 / qpmax=69 / qpstep=4 / vbv_maxrate=50000 / vbv_bufsize=62500 / crf_max=0.0 / nal_hrd=none / ip_ratio=1.40 / pb_ratio=1.25 / aq=1:1.00
Язык : English
Default : Да
Forced : Нет
Аудио #1
Идентификатор : 2
Формат : AC-3
Формат/Информация : Audio Coding 3
Расширение режима : CM (complete main)
Параметр Endianness формата : Big
Идентификатор кодека : A_AC3
Продолжительность : 1 ч. 44 м.
Вид битрейта : Постоянный
Битрейт : 320 Кбит/сек
Каналы : 2 канала
Расположение каналов : Front: L R
Частота : 48,0 КГц
Битовая глубина : 16 бит
Метод сжатия : С потерями
Размер потока : 240 Мбайт (7%)
Заголовок : Профессиональный (полное дублирование) - Line | DD 2.0 @ 320 kbps
Язык : Russian
Default : Да
Forced : Нет
Аудио #2
Идентификатор : 3
Формат : AC-3
Формат/Информация : Audio Coding 3
Расширение режима : CM (complete main)
Параметр Endianness формата : Big
Идентификатор кодека : A_AC3
Продолжительность : 1 ч. 44 м.
Вид битрейта : Постоянный
Битрейт : 448 Кбит/сек
Каналы : 6 каналов
Расположение каналов : Front: L C R, Side: L R, LFE
Частота : 48,0 КГц
Битовая глубина : 16 бит
Метод сжатия : С потерями
Размер потока : 336 Мбайт (10%)
Заголовок : Оригинал (английский)| DD 5.1 @ 448 kbps
Язык : English
Default : Нет
Forced : Нет
Source vs Rip Скриншот c названием фильма Скриншоты
Скачать

Скачать торрент!

Как скачивать? · Что такое торрент? · Рейтинг и ограничения

Сайт не распространяет и не хранит электронные версии произведений, а лишь предоставляет доступ к создаваемому пользователями каталогу ссылок на торрент-файлы, которые содержат только списки хеш-сумм

[Профиль] [ЛС]
Показать сообщения:    
Ответить на тему

Текущее время: Сегодня 07:53

Часовой пояс: GMT + 4



Вы не можете начинать темы
Вы не можете отвечать на сообщения
Вы не можете редактировать свои сообщения
Вы не можете удалять свои сообщения
Вы не можете голосовать в опросах
Вы не можете прикреплять файлы к сообщениям
Вы не можете скачивать файлы