Тарзан-размазня / Gummi T (Майкл Хэгнер / Michael Hegner) [2012, Мультфильм, комедия, семейный, BDRip-AVC] MVO [R5]

Ответить на тему
 
Автор Сообщение

user ®

Стаж: 13 лет

Сообщений: 15041

Пост Пост: #1 от 07-Май-2014 13:15

[Цитировать]

Тарзан-размазня / Gummi T
Страна: Дания / Crone Film Produktion A/S , European Film Bonds
Жанр: Мультфильм, комедия, семейный
Продолжительность: 01:20:48
Год выпуска: 2012
Перевод: Профессиональный (многоголосый закадровый) [R5]
Субтитры: Нет-Режиссёр: Майкл Хэгнер / Michael Hegner
Роли озвучивали: Бьярне Хенриксен, Николай Коперникус, Туре Линдхардт, Карен-Лисе Мюнстер, Сесиль Стенспил
Описание: Ваня — типичный лузер и неудачник. Над ним измываются в школе и пилят дома. Однажды он решает измениться и тут же встречает… самую настоящую ведьму. Та соглашается исполнить любое его желание. Парень выбирает суперсилу. Но колдунья оказалась непутевой и выполнила просьбу всего на один день! Можно ли изменить свою жизнь за 24 часа, обладая шикарной внешностью? Наш маленький Геракл Ваня ответит на этот вопрос!-
Релиз от:
Автор рипа: potroks-Качество: BDRip-AVC
Формат: MKV
Видео: х.264, 1012x546 (1,85:1), 23.976 fps, 1984 Кbps, 0.150 bit/pixel
Аудио#1: 48 kHz, AC3 Dolby Digital, 2/0 (L,C) ch, 224.00 kbps | RUS
Аудио#2: 48 kHz, AC3 Dolby Digital, 3/2 (L,C,R,l,r) + LFE ch, 384.00 kbps | ENG

MI
ОбщееУникальный идентификатор : 227752246476520534175030225870552911175 (0xAB577CB5253864F7BBDD8D6A9C714D47)Полное имя : Tarzan.Razmaznya.2012.DUAL.BDRip.x264.-HELLYWOOD.mkvФормат : MatroskaВерсия формата : Version 4 / Version 2Размер файла : 1,46 ГбайтПродолжительность : 1 ч. 20 м.Общий поток : 2594 Кбит/секНазвание фильма : HELLYWOOD - rip by potroksДата кодирования : UTC 2014-05-01 08:46:13Программа кодирования : mkvmerge v5.9.0 ('On The Loose') built on Dec 15 2012 16:39:58Библиотека кодирования : libebml v1.3.0 + libmatroska v1.4.0
ВидеоИдентификатор : 1Формат : AVCФормат/Информация : Advanced Video CodecПрофиль формата : High@L4.1Параметр CABAC формата : ДаПараметр ReFrames формата : 12 кадровИдентификатор кодека : V_MPEG4/ISO/AVCПродолжительность : 1 ч. 20 м.Битрейт : 1984 Кбит/секШирина : 1012 пикселейВысота : 546 пикселейСоотношение сторон : 1,85:1Режим частоты кадров : ПостоянныйЧастота кадров : 23,976 кадра/секЦветовое пространство : YUVСубдискретизация насыщенности : 4:2:0Битовая глубина : 8 битТип развёртки : ПрогрессивнаяБит/(Пиксели*Кадры) : 0.150Размер потока : 1,09 Гбайт (75%)Заголовок : Gummi TБиблиотека кодирования : x264 core 130 r2273 b3065e6Настройки программы : cabac=1 / ref=12 / deblock=1:-1:-1 / analyse=0x3:0x133 / me=umh / subme=11 / psy=1 / psy_rd=1.05:0.00 / mixed_ref=1 / me_range=32 / chroma_me=1 / trellis=2 / 8x8dct=1 / cqm=0 / deadzone=21,11 / fast_pskip=0 / chroma_qp_offset=-2 / threads=9 / lookahead_threads=6 / sliced_threads=0 / nr=0 / decimate=0 / interlaced=0 / bluray_compat=0 / constrained_intra=0 / bframes=13 / b_pyramid=2 / b_adapt=2 / b_bias=0 / direct=3 / weightb=1 / open_gop=0 / weightp=2 / keyint=250 / keyint_min=23 / scenecut=40 / intra_refresh=0 / rc_lookahead=60 / rc=2pass / mbtree=0 / bitrate=1984 / ratetol=1.0 / qcomp=0.70 / qpmin=0 / qpmax=69 / qpstep=4 / cplxblur=20.0 / qblur=0.5 / vbv_maxrate=20000 / vbv_bufsize=20000 / nal_hrd=none / ip_ratio=1.35 / pb_ratio=1.25 / aq=1:0.80Язык : DutchDefault : ДаForced : Нет
Аудио #1Идентификатор : 2Формат : AC-3Формат/Информация : Audio Coding 3Расширение режима : CM (complete main)Параметр Endianness формата : BigИдентификатор кодека : A_AC3Продолжительность : 1 ч. 20 м.Вид битрейта : ПостоянныйБитрейт : 224 Кбит/секКаналы : 2 каналаРасположение каналов : Front: L RЧастота : 48,0 КГцБитовая глубина : 16 битМетод сжатия : С потерямиРазмер потока : 129 Мбайт (9%)Заголовок : MVO | DD 2.0 @ 224 kbpsЯзык : RussianDefault : ДаForced : Да
Аудио #2Идентификатор : 3Формат : AC-3Формат/Информация : Audio Coding 3Расширение режима : CM (complete main)Параметр Endianness формата : BigИдентификатор кодека : A_AC3Продолжительность : 1 ч. 20 м.Вид битрейта : ПостоянныйБитрейт : 384 Кбит/секКаналы : 6 каналовРасположение каналов : Front: L C R, Side: L R, LFEЧастота : 48,0 КГцБитовая глубина : 16 битМетод сжатия : С потерямиРазмер потока : 222 Мбайт (15%)Заголовок : Original | DD 5.1 @ 384 kbpsЯзык : EnglishDefault : НетForced : Нет
Меню00:00:00.000 : :Chapter 0100:14:20.859 : :Chapter 0200:27:07.208 : :Chapter 0300:40:53.534 : :Chapter 0400:54:27.264 : :Chapter 0501:08:14.715 : :Chapter 0601:20:49.052 : :Chapter 07
Скриншоты
Скачать

Скачать торрент! Тарзан-размазня / Gummi T (Майкл Хэгнер / Michael Hegner) [2012, Мультфильм, комедия, семейный, BDRip-AVC] MVO [R5]

Как скачивать? · Что такое торрент? · Рейтинг и ограничения

Сайт не распространяет и не хранит электронные версии произведений, а лишь предоставляет доступ к создаваемому пользователями каталогу ссылок на торрент-файлы, которые содержат только списки хеш-сумм

[Профиль] [ЛС]
Показать сообщения:    
Ответить на тему

Текущее время: Сегодня 03:59

Часовой пояс: GMT + 4



Вы не можете начинать темы
Вы не можете отвечать на сообщения
Вы не можете редактировать свои сообщения
Вы не можете удалять свои сообщения
Вы не можете голосовать в опросах
Вы не можете прикреплять файлы к сообщениям
Вы не можете скачивать файлы