Беспредел / Autoreiji / Outrage (Такеши Китано / Takeshi Kitano ) [Япония, драма, криминал, BDRip-AVC] MVO + AVO (Сербин) + Original Jpn + Subs (Rus, Eng)

Ответить на тему
 
Автор Сообщение

user ®

Стаж: 11 лет

Сообщений: 15151

Пост Пост: #1 от 06-Май-2014 19:25

[Цитировать]

-Беспредел / Autoreiji / Outrage アウトレイジ
Страна: Япония
Жанр: драма, криминал
Год выпуска: 2010
Продолжительность: 01:49:43-Перевод 1: Профессиональный (многоголосый закадровый)
Перевод 2: Авторский (одноголосый закадровый) |Ю.Сербин|
Cубтитры: английские, русские
Оригинальная аудиодорожка: японский -Режиссер: Такеши Китано / Takeshi Kitano-В ролях-Такеши Китано, Киппэй Сиина, Рё Касэ, Томокадзу Миура, Дзюн Кунимура, Тэтта Сугимото, Такаши Цукамото, Юка Итая, Хидео Накано, Рэндзи Исибаси-Описание-В безжалостной борьбе за власть несколько кланов якудза оспаривают расположение Крестного отца. Главари поднимаются по иерархической лестнице в организации, не пренебрегая заговорами и лживыми клятвами верности. Опытный якудза Отомо наблюдает за развитием карьеры своих товарищей: оставив позади замысловатые татуировки и отрубленные пальцы, они штурмуют мир финансов. В мире коррупции, где царят предательство и месть, ни на минуту не прекращается борьба за достижение вершины или просто за выживание. Это — мир, где героев не существует…-Качество видео: BDRip
Исходное видео: Blu-ray |HDClub|-Контейнер: MKV-Видео: AVC, 1136x484 (2,35:1), ~2000 kbps, 23,976 fps,
Аудио: AC-3, 448 kbps, Dolby Digital, 3/2 (L,C,R,l,r) + LFE ch, 48 KHz |MVO|
Аудио: AC-3, 448 kbps, Dolby Digital, 3/2 (L,C,R,l,r) + LFE ch, 48 KHz |Original|
Формат субтитров: softsub (SRT)
Главы: есть-Размер: 2.02 Gb-отдельно:Аудио: AC-3, 448 kbps, Dolby Digital, 3/2 (L,C,R,l,r) + LFE ch, 48 KHz |Сербин|-

MediaInfo
x264
VIDEO ENCODING
------------------------------
Encoding video to: F:\Temp\0175.264
x264 Q17.9 1136x484 23.976fps (157848 frames)
avs4x264.exe: -L x264_64.exe --crf 17.9 --preset veryslow --profile high --level 4.1 --ref 13 --aq-mode 2 --aq-strength 0.85 --deblock -2:-1 --merange 32 --bframes 14 --psy-rd 0.95:0.00 --qcomp 0.65 --vbv-maxrate 50000 --vbv-bufsize 62500 --subme 11 --keyint 240 --slices 4 --sar 1:1 --output "F:\Temp\0175.264" "F:\Temp\0175.avs"
raw [info]: 1136x484p 1:1 @ 24000/1001 fps (cfr)
x264 [info]: using SAR=1/1
x264 [info]: using cpu capabilities: MMX2 SSE2Fast LZCNT
x264 [info]: profile High, level 4.1
x264 [info]: frame I:966 Avg QP:14.90 size: 93466
x264 [info]: frame P:27958 Avg QP:18.45 size: 24050
x264 [info]: frame B:128924 Avg QP:21.81 size: 5176
x264 [info]: consecutive B-frames: 1.0% 0.9% 2.9% 9.2% 21.8% 35.4% 10.4% 6.0% 2.9% 2.2% 1.6% 2.3% 1.3% 1.0% 1.1%
x264 [info]: mb I I16..4: 10.0% 67.0% 23.0%
x264 [info]: mb P I16..4: 0.4% 3.7% 1.0% P16..4: 32.5% 35.4% 13.6% 2.0% 0.3% skip:11.1%
x264 [info]: mb B I16..4: 0.0% 0.4% 0.1% B16..8: 35.2% 15.0% 2.0% direct: 2.3% skip:45.0% L0:46.2% L1:45.2% BI: 8.5%
x264 [info]: 8x8 transform intra:71.0% inter:60.6%
x264 [info]: direct mvs spatial:100.0% temporal:0.0%
x264 [info]: coded y,uvDC,uvAC intra: 83.4% 82.2% 60.2% inter: 13.7% 9.6% 2.2%
x264 [info]: i16 v,h,dc,p: 27% 18% 18% 37%
x264 [info]: i8 v,h,dc,ddl,ddr,vr,hd,vl,hu: 14% 8% 7% 9% 13% 13% 12% 11% 12%
x264 [info]: i4 v,h,dc,ddl,ddr,vr,hd,vl,hu: 32% 8% 7% 7% 10% 10% 9% 8% 9%
x264 [info]: i8c dc,h,v,p: 38% 25% 22% 15%
x264 [info]: Weighted P-Frames: Y:2.5% UV:1.4%
x264 [info]: ref P L0: 40.7% 8.3% 18.5% 6.7% 6.4% 4.3% 4.4% 2.0% 2.2% 1.6% 1.8% 1.4% 1.6% 0.1% 0.0%
x264 [info]: ref B L0: 63.6% 14.0% 7.4% 3.9% 2.8% 2.5% 1.9% 1.2% 1.0% 0.9% 0.5% 0.2%
x264 [info]: ref B L1: 90.1% 9.9%
x264 [info]: kb/s:1737.68
Формат : Matroska
Версия формата : Version 2
Размер файла : 2,02 Гбайт
Продолжительность : 1 ч. 49 м.
Общий поток : 2636 Кбит/сек
Название фильма : Беспредел / Autoreiji / Outrage
Дата кодирования : UTC 2014-05-06 10:36:37
Программа кодирования : mkvmerge v5.5.0 ('Healer') built on Apr 24 2012 23:47:03
Библиотека кодирования : libebml v1.2.3 + libmatroska v1.3.0
Видео
Идентификатор : 1
Формат : AVC
Формат/Информация : Advanced Video Codec
Профиль формата : High@L4.1
Параметр CABAC формата : Да
Параметр ReFrames формата : 13 кадров
Идентификатор кодека : V_MPEG4/ISO/AVC
Продолжительность : 1 ч. 49 м.
Битрейт : 1688 Кбит/сек
Ширина : 1136 пикселей
Высота : 484 пикселя
Соотношение сторон : 2,35:1
Частота кадров : 23,976 кадра/сек
Цветовое пространство : YUV
Субдискретизация насыщенности : 4:2:0
Битовая глубина : 8 бит
Тип развёртки : Прогрессивная
Бит/(Пиксели*Кадры) : 0.128
Размер потока : 1,29 Гбайт (64%)
Заголовок : Autoreiji.2010_BDRip_cw
Библиотека кодирования : x264 core 142 r2389 956c8d8
Настройки программы : cabac=1 / ref=13 / deblock=1:-2:-1 / analyse=0x3:0x133 / me=umh / subme=11 / psy=1 / psy_rd=0.95:0.00 / mixed_ref=1 / me_range=32 / chroma_me=1 / trellis=2 / 8x8dct=1 / cqm=0 / deadzone=21,11 / fast_pskip=1 / chroma_qp_offset=-2 / threads=4 / lookahead_threads=1 / sliced_threads=0 / slices=4 / nr=0 / decimate=1 / interlaced=0 / bluray_compat=0 / constrained_intra=0 / bframes=14 / b_pyramid=2 / b_adapt=2 / b_bias=0 / direct=3 / weightb=1 / open_gop=0 / weightp=2 / keyint=240 / keyint_min=23 / scenecut=40 / intra_refresh=0 / rc_lookahead=60 / rc=crf / mbtree=1 / crf=17.9 / qcomp=0.65 / qpmin=0 / qpmax=69 / qpstep=4 / vbv_maxrate=50000 / vbv_bufsize=62500 / crf_max=0.0 / nal_hrd=none / filler=0 / ip_ratio=1.40 / aq=2:0.85
Язык : Russian
Default : Да
Forced : Нет
Аудио #1
Идентификатор : 2
Формат : AC-3
Формат/Информация : Audio Coding 3
Расширение режима : CM (complete main)
Параметр Endianness формата : Big
Идентификатор кодека : A_AC3
Продолжительность : 1 ч. 49 м.
Вид битрейта : Постоянный
Битрейт : 448 Кбит/сек
Каналы : 6 каналов
Расположение каналов : Front: L C R, Side: L R, LFE
Частота : 48,0 КГц
Битовая глубина : 16 бит
Метод сжатия : С потерями
Размер потока : 352 Мбайт (17%)
Заголовок : MVO
Язык : Russian
Default : Да
Forced : Нет
Аудио #2
Идентификатор : 3
Формат : AC-3
Формат/Информация : Audio Coding 3
Расширение режима : CM (complete main)
Параметр Endianness формата : Big
Идентификатор кодека : A_AC3
Продолжительность : 1 ч. 49 м.
Вид битрейта : Постоянный
Битрейт : 448 Кбит/сек
Каналы : 6 каналов
Расположение каналов : Front: L C R, Side: L R, LFE
Частота : 48,0 КГц
Битовая глубина : 16 бит
Метод сжатия : С потерями
Размер потока : 352 Мбайт (17%)
Заголовок : Оригинал
Язык : Japanese
Default : Нет
Forced : Нет
Текст #1
Идентификатор : 4
Формат : UTF-8
Идентификатор кодека : S_TEXT/UTF8
Идентификатор кодека/Информация : UTF-8 Plain Text
Язык : Russian
Default : Да
Forced : Нет
Текст #2
Идентификатор : 5
Формат : UTF-8
Идентификатор кодека : S_TEXT/UTF8
Идентификатор кодека/Информация : UTF-8 Plain Text
Язык : English
Default : Нет
Forced : Нет
Меню
00:00:00.000 : en:00:00:00.000
00:09:07.797 : en:00:09:07.797
00:23:29.742 : en:00:23:29.742
00:32:28.905 : en:00:32:28.905
00:44:46.225 : en:00:44:46.225
00:51:16.907 : en:00:51:16.907
01:06:02.417 : en:01:06:02.417
01:14:01.896 : en:01:14:01.896
01:20:56.685 : en:01:20:56.685
01:29:52.846 : en:01:29:52.846
01:39:46.814 : en:01:39:46.814
01:45:15.851 : en:01:45:15.851
01:49:13.547 : en:01:49:13.547
Скриншоты
Сравнение с исходником
BD- Rip
В сэмпле присутствуют все зв. дорожки.
Скачать

Скачать торрент! Беспредел / Autoreiji / Outrage (Такеши Китано / Takeshi Kitano ) [Япония, драма, криминал, BDRip-AVC] MVO + AVO (Сербин) + Original Jpn + Subs (Rus, Eng)

Как скачивать? · Что такое торрент? · Рейтинг и ограничения

Сайт не распространяет и не хранит электронные версии произведений, а лишь предоставляет доступ к создаваемому пользователями каталогу ссылок на торрент-файлы, которые содержат только списки хеш-сумм

[Профиль] [ЛС]
Показать сообщения:    
Ответить на тему

Текущее время: Сегодня 12:26

Часовой пояс: GMT + 4



Вы не можете начинать темы
Вы не можете отвечать на сообщения
Вы не можете редактировать свои сообщения
Вы не можете удалять свои сообщения
Вы не можете голосовать в опросах
Вы не можете прикреплять файлы к сообщениям
Вы не можете скачивать файлы