Воры / The Thieves / Dodookdeul (Дон-Хун Чой / Dong-Hoon Choi) [2012, Южная Корея, боевик, криминал, HDRip] MVO (НТВ+) + Sub Rus

Ответить на тему
 
Автор Сообщение

user ®

Стаж: 11 лет

Сообщений: 15151

Пост Пост: #1 от 06-Май-2014 11:00

[Цитировать]

Воры / The Thieves / Dodookdeul
Страна: Южная Корея
Жанр: боевик, криминал
Год выпуска: 2012
Продолжительность: 02:15:53
Перевод: Профессиональный (многоголосый закадровый) НТВ+
Cубтитры: русские
Оригинальная аудиодорожка: корейский
Режиссер: Дон-Хун Чой / Dong-Hoon Choi
В ролях: Ким Юн Сок, И Чон Чжэ, О Дар Су, Саймон Ям, Чон Чи Хён, Ким Хэ Сук, Анжелика Ли, Ким Хё Су
Описание: Интернациональная команда воров экстра-класса планирует грандиозное ограбление в Макао. Все участники банды — опытные профессионалы, бывали в переделках и способны эффективно работать в самых опасных и стрессовых условиях. Однако, несмотря на то, что все роли в безупречном плане преступления четко определены, многие из участников расклада совсем не собираются довольствоваться своей долей и коварно намереваются умыкнуть весь куш. К тому же один из них — полицейский «под прикрытием»…
Сэмпл: http://multi-up.com/971864
Качество видео: HDRip (исходник BDRip 1080p)
Формат видео: AVI
Видео: XviD, 1649 Kbps, 720 х304 pixels, 24.000 fps
Аудио: AC-3, 192 Kbps, 2 channels, Front: L R, 48.0 KHz, 16 bits
Аудио 2: AC-3, 448 Kbps, 6 channels, Front: L C R, Side: L R, LFE, 48.0 KHz, 16 bits
Формат субтитров: softsub (SRT)

MediaInfo
General
Complete name : D:\kirovtorrent\The.Thieves.2012\The.Thieves.2012.HDRip.avi
Format : AVI
Format/Info : Audio Video Interleave
Format profile : OpenDML
File size : 2.19 GiB
Duration : 2h 15mn
Overall bit rate : 2 307 Kbps
Writing application : VirtualDubMod 1.5.10.3 | www.virtualdub-fr.org || (build 2550/release)
Writing library : VirtualDubMod build 2550/release
Video
ID : 0
Format : MPEG-4 Visual
Format profile : Advanced Simple@L5
Format settings, BVOP : Yes
Format settings, QPel : No
Format settings, GMC : No warppoints
Format settings, Matrix : Default (MPEG)
Codec ID : XVID
Codec ID/Hint : XviD
Duration : 2h 15mn
Bit rate : 1 649 Kbps
Width : 720 pixels
Height : 304 pixels
Display aspect ratio : 2.35:1
Frame rate : 24.000 fps
Color space : YUV
Chroma subsampling : 4:2:0
Bit depth : 8 bits
Scan type : Progressive
Compression mode : Lossy
Bits/(Pixel*Frame) : 0.314
Stream size : 1.57 GiB (71%)
Writing library : XviD 73
Audio #1
ID : 1
Format : AC-3
Format/Info : Audio Coding 3
Mode extension : CM (complete main)
Format settings, Endianness : Big
Codec ID : 2000
Duration : 2h 15mn
Bit rate mode : Constant
Bit rate : 192 Kbps
Channel(s) : 2 channels
Channel positions : Front: L R
Sampling rate : 48.0 KHz
Bit depth : 16 bits
Compression mode : Lossy
Stream size : 187 MiB (8%)
Alignment : Split accross interleaves
Interleave, duration : 42 ms (1.00 video frame)
Interleave, preload duration : 500 ms
Audio #2
ID : 2
Format : AC-3
Format/Info : Audio Coding 3
Mode extension : CM (complete main)
Format settings, Endianness : Big
Codec ID : 2000
Duration : 2h 15mn
Bit rate mode : Constant
Bit rate : 448 Kbps
Channel(s) : 6 channels
Channel positions : Front: L C R, Side: L R, LFE
Sampling rate : 48.0 KHz
Bit depth : 16 bits
Compression mode : Lossy
Stream size : 435 MiB (19%)
Alignment : Split accross interleaves
Interleave, duration : 42 ms (1.00 video frame)
Interleave, preload duration : 500 ms
Скриншот c названием фильма Скриншоты
Скачать

Скачать торрент! Воры / The Thieves / Dodookdeul (Дон-Хун Чой / Dong-Hoon Choi) [2012, Южная Корея, боевик, криминал, HDRip] MVO (НТВ+) + Sub Rus

Как скачивать? · Что такое торрент? · Рейтинг и ограничения

Сайт не распространяет и не хранит электронные версии произведений, а лишь предоставляет доступ к создаваемому пользователями каталогу ссылок на торрент-файлы, которые содержат только списки хеш-сумм

[Профиль] [ЛС]
Показать сообщения:    
Ответить на тему

Текущее время: Сегодня 04:46

Часовой пояс: GMT + 4



Вы не можете начинать темы
Вы не можете отвечать на сообщения
Вы не можете редактировать свои сообщения
Вы не можете удалять свои сообщения
Вы не можете голосовать в опросах
Вы не можете прикреплять файлы к сообщениям
Вы не можете скачивать файлы