Первая любовь (Егор Дружинин) [2009, Комедия, мелодрама, мюзикл, DVDRip]

Ответить на тему
 
Автор Сообщение

user ®

Стаж: 7 лет 7 месяцев

Сообщений: 20008

Пост Пост: #1 от 06-Май-2014 11:00

[Цитировать]

Первая любовь
Жанр: Комедия, мелодрама, мюзикл
Год выпуска: 2009
Продолжительность: 01:28:07
Режиссёр: Егор Дружинин
В ролях: Юлия Савичева, Илзе Лиепа, Дмитрий Бурукин, Юрий Чернов, Александр Крылов, Игорь Балалаев, Сергей Зарубин, Дмитрий Адамович, Илья Глинников, Ольга Карпухова
Описание: Дом культуры, где Таня занимается танцами, собираются перестраивать под развлекательный комплекс, и скоро ей негде будет репетировать. В ночном клубе она случайно знакомится с Сашей, сыном владельца ДК, и постепенно он тоже увлекается танцами. Чтобы отец Саши понял, насколько для них важны танцы, музыка и творчество, ребята придумывают и ставят целое танцевальное шоу…

Качество видео: DVDRip
Формат видео: AVI
Видео: XviD, 704x384 (16:9), 25 кадр/с, 1986 Кбит/с
Аудио: Русский, Dolby AC3, 48000 Гц, 384 Кбит/с, 6 каналов (5.1)

Автор рипа - ivandubskoj
MediaInfo
General
Complete name : Pervaya.lyubov'.2009.DVDRip.avi
Format : AVI
Format/Info : Audio Video Interleave
File size : 1.46 GiB
Duration : 1h 28mn
Overall bit rate : 2 377 Kbps
Movie name : Первая любовь (2009) DVDRip
Genre : Комедия, мелодрама, мюзикл
Recorded date : 04.05.2014
Writing application : VirtualDubMod 1.5.10.3 | www.virtualdub-fr.org || (build 2550/release)
Writing library : VirtualDubMod build 2550/release
Copyright : rip by ivandubskoj
Video
ID : 0
Format : MPEG-4 Visual
Format profile : Advanced Simple@L5
Format settings, BVOP : 1
Format settings, QPel : No
Format settings, GMC : No warppoints
Format settings, Matrix : Default (MPEG)
Codec ID : XVID
Codec ID/Hint : XviD
Duration : 1h 28mn
Bit rate : 1 986 Kbps
Width : 704 pixels
Height : 384 pixels
Display aspect ratio : 16:9
Frame rate : 25.000 fps
Color space : YUV
Chroma subsampling : 4:2:0
Bit depth : 8 bits
Scan type : Progressive
Compression mode : Lossy
Bits/(Pixel*Frame) : 0.294
Stream size : 1.22 GiB (84%)
Writing library : XviD 73
Audio
ID : 1
Format : AC-3
Format/Info : Audio Coding 3
Mode extension : CM (complete main)
Codec ID : 2000
Duration : 1h 28mn
Bit rate mode : Constant
Bit rate : 384 Kbps
Channel(s) : 6 channels
Channel positions : Front: L C R, Side: L R, LFE
Sampling rate : 48.0 KHz
Bit depth : 16 bits
Compression mode : Lossy
Stream size : 242 MiB (16%)
Alignment : Split accross interleaves
Interleave, duration : 64 ms (1.60 video frames)
Interleave, preload duration : 500 ms
Title : Russian
Скриншот c названием фильма Скриншоты
Скачать

Скачать торрент!

Как скачивать? · Что такое торрент? · Рейтинг и ограничения

Сайт не распространяет и не хранит электронные версии произведений, а лишь предоставляет доступ к создаваемому пользователями каталогу ссылок на торрент-файлы, которые содержат только списки хеш-сумм

[Профиль] [ЛС]
Показать сообщения:    
Ответить на тему

Текущее время: Сегодня 08:11

Часовой пояс: GMT + 4



Вы не можете начинать темы
Вы не можете отвечать на сообщения
Вы не можете редактировать свои сообщения
Вы не можете удалять свои сообщения
Вы не можете голосовать в опросах
Вы не можете прикреплять файлы к сообщениям
Вы не можете скачивать файлы