Терминал / The Terminal (Стивен Спилберг / Steven Spielberg) [2004, США, драма, комедия, BDRemux 1080p] DUB + MVO + DVO + AVO + 2х Ukr + original eng + Subs (rus, eng)

Ответить на тему
 
Автор Сообщение

user ®

Стаж: 7 лет 7 месяцев

Сообщений: 20008

Пост Пост: #1 от 06-Май-2014 07:50

[Цитировать]

Терминал / The Terminal-Год выпуска: 2004
Страна: США
Жанр: драма, комедия
Продолжительность: 02:08:46
Перевод 1: Профессиональный (дублированный) R5
Перевод 2: Профессиональный (многоголосый закадровый)
Перевод 3: Профессиональный (двухголосый закадровый) Tycoon
Перевод 4: Авторский (одноголосый закадровый) Королев
Субтитры: русские, английские
Оригинальная аудиодорожка: английский-Режиссер: Стивен Спилберг / Steven Spielberg
В ролях: Том Хэнкс, Кэтрин Зета-Джонс, Стэнли Туччи, Чи МакБрайд, Диего Луна, Бэрри Шебака Хенли, Кумар Паллана, Зои Салдана, Эдди Джонс, Джуд Чикколелла, Кори Рейнольдс, Гильермо Диас, Рини Белл, Стивен Мендел, Валерий Николаев, Майкл Нури, Ана Мария Квинтана, Боб Моррисей, Саша Спилберг, Сьюзэн Слоум, Мик Скриба, Джим Ишида, Карлис Бурк, Стефон Фуллер, Дэн Финнерти-Описание: Фильм рассказывает историю Виктора Наворски, отправившегося в Нью-Йорк из Восточной Европы. Пока Виктор летел в самолете, на его родине произошел государственный переворот. Оказавшись в международном аэропорту имени Джона Кеннеди с паспортом ниоткуда, он не имеет права въехать в Соединенные Штаты и должен коротать свои дни и ночи на скамейках у выхода 67, пока война в его родной стране не закончится.
Тянутся недели и месяцы, и Виктор обнаруживает, что небольшой мирок терминала может быть наполнен абсурдом, щедростью, амбициями, развлечениями, желанием сохранить свой статус, интуитивной прозорливостью и даже любовью к очаровательной стюардессе Амелии. Виктору удается завоевать симпатии всех, кроме одного человека — чиновника аэропорта Фрэнка Диксона, который считает его бюрократической ошибкой, проблемой, которую он не может контролировать, но от которой жаждет избавиться.



Сэмпл: http://sendfile.su/975608
Качество видео: BDRemux (The Terminal (2004) Blu-ray Disc -BLUEBIRD)
Формат видео: MKV
Видео: MPEG-4 AVC, 1920х1080, ~29962 kbps, 23.976 fps, High Profile 4.1
Аудио#1: Russian, AC3, 3/2 (L,C,R,l,r) + LFE ch, 384 kbps |Дублированный R5|
Аудио#2: Russian, AC3, 2/0 (L,R) + LFE ch, 192 kbps |Многоголосый закадровый|
Аудио#3: Russian, AC3, 3/2 (L,C,R,l,r) + LFE ch, 448 kbps |Двухголосый закадровый, Tycoon|
Аудио#4: Russian, AC3, 3/2 (L,C,R,l,r) + LFE ch, 448 kbps |Одноголосый закадровый, Королев|
Аудио#5: Ukrainian, AC3, 2/0 (L,R) + LFE ch, 192 kbps |Многоголосый закадровый, ТК "Інтер"|
Аудио#6: Ukrainian, AC3, 2/0 (L,R) + LFE ch, 192 kbps |Многоголосый закадровый, ТК "Новий"|
Аудио#7: English, DTS-HD MA, 3/2 (L,C,R,l,r) + LFE ch, 4087 kbps / 24-bit (DTS Core: 5.1 / 48 kHz / 1509 kbps / 24-bit)
Субтитры: Russian, English (full, SDH)
MediaInfo
Format : Matroska
Format version : Version 4 / Version 2
File size : 31.9 GiB
Duration : 2h 8mn
Overall bit rate mode : Variable
Overall bit rate : 35.4 Mbps
Encoded date : UTC 2014-05-04 17:05:12
Writing application : mkvmerge v6.9.1 ('Blue Panther') 64bit built on Apr 18 2014 18:23:38
Writing library : libebml v1.3.0 + libmatroska v1.4.1
Video
ID : 1
Format : AVC
Format/Info : Advanced Video Codec
Format profile : High@L4.1
Format settings, CABAC : Yes
Format settings, ReFrames : 4 frames
Codec ID : V_MPEG4/ISO/AVC
Duration : 2h 8mn
Bit rate mode : Variable
Maximum bit rate : 34.2 Mbps
Width : 1 920 pixels
Height : 1 080 pixels
Display aspect ratio : 16:9
Frame rate mode : Constant
Frame rate : 23.976 fps
Color space : YUV
Chroma subsampling : 4:2:0
Bit depth : 8 bits
Scan type : Progressive
Language : English
Default : Yes
Forced : No
Audio #1
ID : 2
Format : AC-3
Format/Info : Audio Coding 3
Mode extension : CM (complete main)
Format settings, Endianness : Big
Codec ID : A_AC3
Duration : 2h 8mn
Bit rate mode : Constant
Bit rate : 384 Kbps
Channel(s) : 6 channels
Channel positions : Front: L C R, Side: L R, LFE
Sampling rate : 48.0 KHz
Bit depth : 16 bits
Compression mode : Lossy
Stream size : 354 MiB (1%)
Title : DUB R5
Language : Russian
Default : Yes
Forced : No
Audio #2
ID : 3
Format : AC-3
Format/Info : Audio Coding 3
Mode extension : CM (complete main)
Format settings, Endianness : Big
Codec ID : A_AC3
Duration : 2h 8mn
Bit rate mode : Constant
Bit rate : 192 Kbps
Channel(s) : 2 channels
Channel positions : Front: L R
Sampling rate : 48.0 KHz
Bit depth : 16 bits
Compression mode : Lossy
Stream size : 177 MiB (1%)
Title : MVO
Language : Russian
Default : No
Forced : No
Audio #3
ID : 4
Format : AC-3
Format/Info : Audio Coding 3
Mode extension : CM (complete main)
Format settings, Endianness : Big
Codec ID : A_AC3
Duration : 2h 8mn
Bit rate mode : Constant
Bit rate : 448 Kbps
Channel(s) : 6 channels
Channel positions : Front: L C R, Side: L R, LFE
Sampling rate : 48.0 KHz
Bit depth : 16 bits
Compression mode : Lossy
Stream size : 413 MiB (1%)
Title : DVO Tycoon
Language : Russian
Default : No
Forced : No
Audio #4
ID : 5
Format : AC-3
Format/Info : Audio Coding 3
Mode extension : CM (complete main)
Format settings, Endianness : Big
Codec ID : A_AC3
Duration : 2h 8mn
Bit rate mode : Constant
Bit rate : 448 Kbps
Channel(s) : 6 channels
Channel positions : Front: L C R, Side: L R, LFE
Sampling rate : 48.0 KHz
Bit depth : 16 bits
Compression mode : Lossy
Stream size : 413 MiB (1%)
Title : VO Korolev
Language : Russian
Default : No
Forced : No
Audio #5
ID : 6
Format : AC-3
Format/Info : Audio Coding 3
Format profile : Dolby Digital
Mode extension : CM (complete main)
Format settings, Endianness : Big
Codec ID : A_AC3
Duration : 2h 8mn
Bit rate mode : Constant
Bit rate : 192 Kbps
Channel(s) : 2 channels
Channel positions : Front: L R
Sampling rate : 48.0 KHz
Bit depth : 16 bits
Compression mode : Lossy
Stream size : 177 MiB (1%)
Title : MVO Inter
Language : Ukrainian
Default : No
Forced : No
Audio #6
ID : 7
Format : AC-3
Format/Info : Audio Coding 3
Format profile : Dolby Digital
Mode extension : CM (complete main)
Format settings, Endianness : Big
Codec ID : A_AC3
Duration : 2h 8mn
Bit rate mode : Constant
Bit rate : 192 Kbps
Channel(s) : 2 channels
Channel positions : Front: L R
Sampling rate : 48.0 KHz
Bit depth : 16 bits
Compression mode : Lossy
Stream size : 177 MiB (1%)
Title : MVO Noviy
Language : Ukrainian
Default : No
Forced : No
Audio #7
ID : 8
Format : DTS
Format/Info : Digital Theater Systems
Format profile : MA / Core
Mode : 16
Format settings, Endianness : Big
Codec ID : A_DTS
Duration : 2h 8mn
Bit rate mode : Variable
Bit rate : Unknown / 1 509 Kbps
Channel(s) : 6 channels
Channel positions : Front: L C R, Side: L R, LFE
Sampling rate : 48.0 KHz
Bit depth : 24 bits
Compression mode : Lossless / Lossy
Language : English
Default : No
Forced : No
Text #1
ID : 9
Format : UTF-8
Codec ID : S_TEXT/UTF8
Codec ID/Info : UTF-8 Plain Text
Title : full
Language : Russian
Default : No
Forced : No
Text #2
ID : 10
Format : UTF-8
Codec ID : S_TEXT/UTF8
Codec ID/Info : UTF-8 Plain Text
Title : full
Language : English
Default : No
Forced : No
Text #3
ID : 11
Format : UTF-8
Codec ID : S_TEXT/UTF8
Codec ID/Info : UTF-8 Plain Text
Title : SDH
Language : English
Default : No
Forced : No
Menu
00:00:00.000 : :Chapter 01
00:03:15.068 : :Chapter 02
00:08:59.288 : :Chapter 03
00:14:02.049 : :Chapter 04
00:15:27.259 : :Chapter 05
00:18:34.445 : :Chapter 06
00:20:25.641 : :Chapter 07
00:23:04.257 : :Chapter 08
00:27:40.324 : :Chapter 09
00:29:41.863 : :Chapter 10
00:32:28.571 : :Chapter 11
00:35:06.187 : :Chapter 12
00:41:22.146 : :Chapter 13
00:47:21.295 : :Chapter 14
00:52:10.168 : :Chapter 15
00:57:34.075 : :Chapter 16
01:00:36.341 : :Chapter 17
01:05:59.997 : :Chapter 18
01:16:04.560 : :Chapter 19
01:18:18.652 : :Chapter 20
01:29:05.673 : :Chapter 21
01:32:53.859 : :Chapter 22
01:35:16.001 : :Chapter 23
01:42:00.113 : :Chapter 24
01:48:59.491 : :Chapter 25
01:51:01.071 : :Chapter 26
01:57:51.939 : :Chapter 27
02:01:33.703 : :Chapter 28
02:08:45.592 : :Chapter 29
Скриншоты
Скачать

Скачать торрент!

Как скачивать? · Что такое торрент? · Рейтинг и ограничения

Сайт не распространяет и не хранит электронные версии произведений, а лишь предоставляет доступ к создаваемому пользователями каталогу ссылок на торрент-файлы, которые содержат только списки хеш-сумм

[Профиль] [ЛС]
Показать сообщения:    
Ответить на тему

Текущее время: Сегодня 22:29

Часовой пояс: GMT + 4



Вы не можете начинать темы
Вы не можете отвечать на сообщения
Вы не можете редактировать свои сообщения
Вы не можете удалять свои сообщения
Вы не можете голосовать в опросах
Вы не можете прикреплять файлы к сообщениям
Вы не можете скачивать файлы