Терминал / The Terminal (Стивен Спилберг / Steven Spielberg) [2004, США, драма, комедия, BDRip 720p] Dub + MVO + DVO + AVO + 2х Ukr + Original Eng + Sub Rus, Eng

Ответить на тему
 
Автор Сообщение

user ®

Стаж: 7 лет 7 месяцев

Сообщений: 20008

Пост Пост: #1 от 06-Май-2014 07:50

[Цитировать]

ТерминалThe Terminal«Жизнь - это ожидание»- Страна: США
Жанр: драма, комедия
Год выпуска: 2004
Продолжительность: 02:08:45
Перевод 1: Профессиональный (дублированный) R5
Перевод 2: Профессиональный (многоголосый закадровый)
Перевод 3: Профессиональный (двухголосый закадровый) Tycoon
Перевод 4: Авторский (одноголосый закадровый) В. Королёв
Cубтитры: русские (полные), английские (полные, SDH).
Оригинальная аудиодорожка: английский
Режиссер: Стивен Спилберг / Steven Spielberg
В ролях: Том Хэнкс, Кэтрин Зета-Джонс, Стэнли Туччи, Чи МакБрайд, Диего Луна, Бэрри Шебака Хенли, Кумар Паллана, Зои Салдана, Эдди Джонс, Джуд Чикколелла, Кори Рейнольдс, Гильермо Диас, Рини Белл, Стивен Мендел, Валерий Николаев, Майкл Нури, Ана Мария Квинтана, Боб Моррисей, Саша Спилберг, Сьюзэн Слоум, Мик Скриба, Джим Ишида, Карлис Бурк, Стефон Фуллер, Дэн Финнерти
Описание: Фильм рассказывает историю Виктора Наворски, отправившегося в Нью-Йорк из Восточной Европы. Пока Виктор летел в самолете, на его родине произошел государственный переворот. Оказавшись в международном аэропорту имени Джона Кеннеди с паспортом ниоткуда, он не имеет права въехать в Соединенные Штаты и должен коротать свои дни и ночи в гостинице аэропорта, пока война в его родной стране не закончится. Тянутся недели и месяцы, и Виктор обнаруживает, что небольшой мирок терминала может быть наполнен абсурдом, щедростью, амбициями, развлечениями, желанием сохранить свой статус, интуитивной прозорливостью и даже любовью к очаровательной стюардессе Амелии. Виктору удается завоевать симпатии всех, кроме одного человека — чиновника аэропорта Фрэнка Диксона, который считает его бюрократической ошибкой, проблемой, которую он не может контролировать, но от которой жаждет избавиться...

MPAA: PG-13 - Детям до 13 лет просмотр не желателен-Сэмпл: http://multi-up.com/971679
Автор рипа: Vikosol
Тип релиза: BDRip 720p The Terminal (2004) Blu-ray Disc -BLUEBIRD
Контейнер: MKV
Видео: MPEG-4 AVC, 1280x690 (1.855), 14737 kbps, 23,976 fps, 0,696 bpp
Аудио №1: русский / AC3 / 5.1 / 48 kHz / 384 kbps / 16 bit |Дублированный R5|
Аудио №2: русский / AC3 / 2.0 / 48 kHz / 192 kbps / 16 bit |Многоголосый закадровый|
Аудио №3: русский / AC3 / 5.1 / 48 kHz / 448 kbps / 16 bit |Двухголосый закадровый, Tycoon|
Аудио №4: украинский / AC3 / 2.0 / 48 kHz / 192 kbps / 16 bit |Многоголосый закадровый, ТК "Інтер"|
Аудио №5: русский / AC3 / 5.1 / 48 kHz / 448 kbps / 16 bit |Одноголосый закадровый, Королев|
Аудио №6: украинский / AC3 / 2.0 / 48 kHz / 192 kbps / 16 bit |Многоголосый закадровый, ТК "Новий"|
Аудио №7: английский / DTS / 5.1 / 48 kHz / 1510 kbps / 24 bit
Формат субтитров: softsub (SRT)
source vs rip log x264
x264 [info]: frame I:1131 Avg QP:17.27 size:175284
x264 [info]: frame P:33141 Avg QP:18.79 size:118502
x264 [info]: frame B:150963 Avg QP:20.92 size: 69258
x264 [info]: consecutive B-frames: 0.9% 0.7% 2.4% 16.0% 14.0% 38.8% 8.6% 5.2% 4.7% 5.1% 3.6%
x264 [info]: mb I I16..4: 24.2% 51.9% 23.8%
x264 [info]: mb P I16..4: 11.3% 20.9% 6.2% P16..4: 17.1% 24.0% 14.0% 0.0% 0.0% skip: 6.4%
x264 [info]: mb B I16..4: 1.2% 6.5% 1.1% B16..8: 30.7% 24.4% 7.1% direct:15.7% skip:13.4% L0:40.0% L1:29.8% BI:30.2%
x264 [info]: 8x8 transform intra:63.9% inter:38.2%
x264 [info]: coded y,uvDC,uvAC intra: 93.4% 92.2% 78.2% inter: 66.4% 51.3% 16.4%
x264 [info]: i16 v,h,dc,p: 3% 1% 44% 51%
x264 [info]: i8 v,h,dc,ddl,ddr,vr,hd,vl,hu: 12% 9% 22% 8% 10% 9% 10% 9% 12%
x264 [info]: i4 v,h,dc,ddl,ddr,vr,hd,vl,hu: 29% 6% 10% 7% 10% 9% 9% 9% 10%
x264 [info]: i8c dc,h,v,p: 47% 20% 18% 15%
x264 [info]: Weighted P-Frames: Y:8.5% UV:6.0%
x264 [info]: ref P L0: 34.4% 10.2% 20.6% 9.3% 7.9% 5.6% 5.2% 3.2% 3.2% 0.2% 0.0%
x264 [info]: ref B L0: 64.6% 14.8% 8.2% 4.5% 3.5% 2.7% 1.3% 0.4%
x264 [info]: ref B L1: 89.2% 10.8%
x264 [info]: kb/s:15098.34
x264 [total]: encoded 185235 frames, 4.336 fps, 15098.34 kb/s, 13905 MB
MediaInfo
Format : Matroska
Format version : Version 4 / Version 2
File size : 16.6 GiB
Duration : 2h 8mn
Overall bit rate : 18.5 Mbps
Movie name : Rip by Vikosol
Encoded date : UTC 2014-05-04 18:09:23
Writing application : mkvmerge v6.8.0 ('Theme for Great Cities') 64bit built on Mar 2 2014 21:34:26
Writing library : libebml v1.3.0 + libmatroska v1.4.1
Video
ID : 1
Format : AVC
Format/Info : Advanced Video Codec
Format profile : High@L4.1
Format settings, CABAC : Yes
Format settings, ReFrames : 9 frames
Codec ID : V_MPEG4/ISO/AVC
Duration : 2h 8mn
Bit rate : 14.7 Mbps
Width : 1 280 pixels
Height : 690 pixels
Display aspect ratio : 1.855
Frame rate : 23.976 fps
Color space : YUV
Chroma subsampling : 4:2:0
Bit depth : 8 bits
Scan type : Progressive
Bits/(Pixel*Frame) : 0.696
Stream size : 13.3 GiB (80%)
Writing library : x264 core 142 r2431+42 c69a006 tMod [8-bit@all X86_64]
Encoding settings : cabac=1 / ref=9 / deblock=1:-3:-3 / analyse=0x3:0x113 / me=umh / subme=11 / psy=1 / fade_compensate=0.00 / psy_rd=0.95:0.20 / mixed_ref=1 / me_range=32 / chroma_me=1 / trellis=2 / 8x8dct=1 / cqm=0 / deadzone=21,11 / fast_pskip=0 / chroma_qp_offset=-3 / threads=6 / lookahead_threads=1 / sliced_threads=0 / nr=0 / decimate=0 / interlaced=0 / bluray_compat=0 / constrained_intra=0 / fgo=0 / bframes=10 / b_pyramid=2 / b_adapt=2 / b_bias=0 / direct=1 / weightb=1 / open_gop=0 / weightp=2 / keyint=240 / keyint_min=23 / scenecut=40 / intra_refresh=0 / rc=crf / mbtree=0 / crf=18.0000 / qcomp=0.75 / qpmin=0:0:0 / qpmax=69:69:69 / qpstep=4 / ip_ratio=1.40 / pb_ratio=1.30 / aq=1:0.85 / aq-sensitivity=10.00 / aq-factor=1.00:1.00:1.00 / aq2=0 / aq3=0
Language : English
Audio #1
ID : 2
Format : AC-3
Format/Info : Audio Coding 3
Mode extension : CM (complete main)
Codec ID : A_AC3
Duration : 2h 8mn
Bit rate mode : Constant
Bit rate : 384 Kbps
Channel(s) : 6 channels
Channel positions : Front: L C R, Side: L R, LFE
Sampling rate : 48.0 KHz
Bit depth : 16 bits
Compression mode : Lossy
Stream size : 354 MiB (2%)
Title : DUB - R5
Language : Russian
Audio #2
ID : 3
Format : AC-3
Format/Info : Audio Coding 3
Mode extension : CM (complete main)
Codec ID : A_AC3
Duration : 2h 8mn
Bit rate mode : Constant
Bit rate : 192 Kbps
Channel(s) : 2 channels
Channel positions : Front: L R
Sampling rate : 48.0 KHz
Bit depth : 16 bits
Compression mode : Lossy
Stream size : 177 MiB (1%)
Title : MVO
Language : Russian
Audio #3
ID : 4
Format : AC-3
Format/Info : Audio Coding 3
Mode extension : CM (complete main)
Codec ID : A_AC3
Duration : 2h 8mn
Bit rate mode : Constant
Bit rate : 448 Kbps
Channel(s) : 6 channels
Channel positions : Front: L C R, Side: L R, LFE
Sampling rate : 48.0 KHz
Bit depth : 16 bits
Compression mode : Lossy
Stream size : 413 MiB (2%)
Title : DVO - TYCOON
Language : Russian
Audio #4
ID : 5
Format : AC-3
Format/Info : Audio Coding 3
Format profile : Dolby Digital
Mode extension : CM (complete main)
Codec ID : A_AC3
Duration : 2h 8mn
Bit rate mode : Constant
Bit rate : 192 Kbps
Channel(s) : 2 channels
Channel positions : Front: L R
Sampling rate : 48.0 KHz
Bit depth : 16 bits
Compression mode : Lossy
Stream size : 177 MiB (1%)
Title : MVO - ТК "Інтер"
Language : Ukrainian
Audio #5
ID : 6
Format : AC-3
Format/Info : Audio Coding 3
Mode extension : CM (complete main)
Codec ID : A_AC3
Duration : 2h 8mn
Bit rate mode : Constant
Bit rate : 448 Kbps
Channel(s) : 6 channels
Channel positions : Front: L C R, Side: L R, LFE
Sampling rate : 48.0 KHz
Bit depth : 16 bits
Compression mode : Lossy
Stream size : 413 MiB (2%)
Title : AVO - В. Королёв
Language : Russian
Audio #6
ID : 7
Format : AC-3
Format/Info : Audio Coding 3
Format profile : Dolby Digital
Mode extension : CM (complete main)
Codec ID : A_AC3
Duration : 2h 8mn
Bit rate mode : Constant
Bit rate : 192 Kbps
Channel(s) : 2 channels
Channel positions : Front: L R
Sampling rate : 48.0 KHz
Bit depth : 16 bits
Compression mode : Lossy
Stream size : 177 MiB (1%)
Title : MVO - ТК "Новий"
Language : Ukrainian
Audio #7
ID : 8
Format : DTS
Format/Info : Digital Theater Systems
Codec ID : A_DTS
Duration : 2h 8mn
Bit rate mode : Constant
Bit rate : 1 510 Kbps
Channel(s) : 6 channels
Channel positions : Front: L C R, Side: L R, LFE
Sampling rate : 48.0 KHz
Bit depth : 24 bits
Compression mode : Lossy
Stream size : 1.36 GiB (8%)
Language : English
Text #1
ID : 9
Format : UTF-8
Codec ID : S_TEXT/UTF8
Codec ID/Info : UTF-8 Plain Text
Title : Full
Language : Russian
Text #2
ID : 10
Format : UTF-8
Codec ID : S_TEXT/UTF8
Codec ID/Info : UTF-8 Plain Text
Title : Full
Language : English
Text #3
ID : 11
Format : UTF-8
Codec ID : S_TEXT/UTF8
Codec ID/Info : UTF-8 Plain Text
Title : SDH
Language : English
Menu
00:00:00.000 : :Chapter 01
00:03:15.068 : :Chapter 02
00:08:59.288 : :Chapter 03
00:14:02.049 : :Chapter 04
00:15:27.259 : :Chapter 05
00:18:34.445 : :Chapter 06
00:20:25.641 : :Chapter 07
00:23:04.257 : :Chapter 08
00:27:40.324 : :Chapter 09
00:29:41.863 : :Chapter 10
00:32:28.571 : :Chapter 11
00:35:06.187 : :Chapter 12
00:41:22.146 : :Chapter 13
00:47:21.295 : :Chapter 14
00:52:10.168 : :Chapter 15
00:57:34.075 : :Chapter 16
01:00:36.341 : :Chapter 17
01:05:59.997 : :Chapter 18
01:16:04.560 : :Chapter 19
01:18:18.652 : :Chapter 20
01:29:05.673 : :Chapter 21
01:32:53.859 : :Chapter 22
01:35:16.001 : :Chapter 23
01:42:00.113 : :Chapter 24
01:48:59.491 : :Chapter 25
01:51:01.071 : :Chapter 26
01:57:51.939 : :Chapter 27
02:01:33.703 : :Chapter 28
02:08:45.592 : :Chapter 29
Скриншоты Цитата:
За аудио №2, спасибо Striker
Скачать

Скачать торрент!

Как скачивать? · Что такое торрент? · Рейтинг и ограничения

Сайт не распространяет и не хранит электронные версии произведений, а лишь предоставляет доступ к создаваемому пользователями каталогу ссылок на торрент-файлы, которые содержат только списки хеш-сумм

[Профиль] [ЛС]
Показать сообщения:    
Ответить на тему

Текущее время: Сегодня 03:14

Часовой пояс: GMT + 4



Вы не можете начинать темы
Вы не можете отвечать на сообщения
Вы не можете редактировать свои сообщения
Вы не можете удалять свои сообщения
Вы не можете голосовать в опросах
Вы не можете прикреплять файлы к сообщениям
Вы не можете скачивать файлы