Токарев / Tokarev (Пако Кабесас / Paco Cabezas) [2014, США, Франция, Боевик, Триллер, Криминал, BDRip-AVC] DVO

Ответить на тему
 
Автор Сообщение

user ®

Стаж: 7 лет 7 месяцев

Сообщений: 20008

Пост Пост: #1 от 05-Май-2014 23:45

[Цитировать]

ТокаревTokarev- Страна: США, Франция
Жанр: Боевик, Триллер, Криминал
Год выпуска: 2014
Продолжительность: 01:38:26
Перевод: Любительский (двухголосый закадровый) |Пиратская студия|
Cубтитры: нет
Оригинальная аудиодорожка: нет
Режиссер: Пако Кабесас / Paco Cabezas
В ролях: Николас Кейдж, Рэйчел Николс, Макс Райан, Майкл МакГрэйди, Петер Стормаре, Павел Личникофф, Патрис Колс, Макс Фаулер, Обри Пиплз, Джек Фалахи
Описание: Пол Магуаер — бывший гангстер, а теперь добропорядочный бизнесмен и примерный семьянин. Но когда его дочь похищают, он вынужден поднять свои старые связи и снова вернуться на скользкую дорожку…

Сэмпл: http://multi-up.com/971828
Автор рипа: Vikosol

Качество видео: BDRip-AVC [Tokarev 2014 1080p BluRay REMUX DTS-HD MA 5 1-C0DEX]
Формат видео: MKV
Видео: MPEG-4 AVC, 960x408 (2.35:1), 1671 kbps, 23,976 fps, 0,178 bpp
Аудио: русский / AC3 / 5.1 / 48 kHz / 448 kbps / 16 bit
Навигация по главам: есть
source vs rip log x264
x264 [info]: frame I:1152  Avg QP:15.26  size: 52943
x264 [info]: frame P:35949 Avg QP:18.80  size: 16964
x264 [info]: frame B:104523 Avg QP:19.86  size:  5342
x264 [info]: consecutive B-frames:  5.0%  5.0% 11.5% 21.1% 18.0% 27.6%  5.3%  1.7%  1.9%  0.8%  0.8%  1.4%
x264 [info]: mb I  I16..4: 16.5% 53.4% 30.1%
x264 [info]: mb P  I16..4:  2.0% 14.9%  3.1%  P16..4: 29.6% 30.0%  9.9%  0.0%  0.0%    skip:10.5%
x264 [info]: mb B  I16..4:  0.3%  1.6%  0.3%  B16..8: 33.0% 18.3%  2.9%  direct: 4.9%  skip:38.7%  L0:42.5% L1:44.5% BI:13.0%
x264 [info]: 8x8 transform intra:71.8% inter:54.4%
x264 [info]: direct mvs  spatial:98.2% temporal:1.8%
x264 [info]: coded y,uvDC,uvAC intra: 79.0% 76.2% 49.6% inter: 20.2% 20.2% 8.1%
x264 [info]: i16 v,h,dc,p: 38% 15% 14% 33%
x264 [info]: i8 v,h,dc,ddl,ddr,vr,hd,vl,hu: 14% 11% 13%  8% 10% 11% 11% 11% 12%
x264 [info]: i4 v,h,dc,ddl,ddr,vr,hd,vl,hu: 19% 13% 12%  7% 11% 11% 10%  8% 10%
x264 [info]: i8c dc,h,v,p: 38% 29% 20% 14%
x264 [info]: Weighted P-Frames: Y:10.4% UV:5.4%
x264 [info]: ref P L0: 49.1% 10.9% 17.0%  6.1%  5.1%  3.6%  3.1%  1.7%  1.6%  1.5%  0.3%  0.0%
x264 [info]: ref B L0: 74.0% 11.6%  5.5%  2.8%  2.1%  1.8%  1.3%  0.6%  0.3%
x264 [info]: ref B L1: 92.5%  7.5%
x264 [info]: kb/s:1664.79
MediaInfo
Format : Matroska
Format version : Version 4 / Version 2
File size : 1.45 GiB
Duration : 1h 38mn
Overall bit rate : 2 114 Kbps
Movie name : Rip by Vikosol
Encoded date : UTC 2014-05-05 11:44:32
Writing application : mkvmerge v6.8.0 ('Theme for Great Cities') 64bit built on Mar 2 2014 21:34:26
Writing library : libebml v1.3.0 + libmatroska v1.4.1
Video
ID : 1
Format : AVC
Format/Info : Advanced Video Codec
Format profile : High@L4.1
Format settings, CABAC : Yes
Format settings, ReFrames : 10 frames
Codec ID : V_MPEG4/ISO/AVC
Duration : 1h 38mn
Bit rate : 1 671 Kbps
Width : 960 pixels
Height : 408 pixels
Display aspect ratio : 2.35:1
Frame rate mode : Constant
Frame rate : 23.976 fps
Color space : YUV
Chroma subsampling : 4:2:0
Bit depth : 8 bits
Scan type : Progressive
Bits/(Pixel*Frame) : 0.178
Stream size : 1.12 GiB (77%)
Writing library : x264 core 142 r2431+42 c69a006 tMod [8-bit@all X86_64]
Encoding settings : cabac=1 / ref=10 / deblock=1:-2:-2 / analyse=0x3:0x113 / me=umh / subme=11 / psy=1 / fade_compensate=0.00 / psy_rd=1.10:0.20 / mixed_ref=1 / me_range=32 / chroma_me=1 / trellis=2 / 8x8dct=1 / cqm=0 / deadzone=21,11 / fast_pskip=0 / chroma_qp_offset=-3 / threads=6 / lookahead_threads=1 / sliced_threads=0 / nr=0 / decimate=0 / interlaced=0 / bluray_compat=0 / constrained_intra=0 / fgo=0 / bframes=11 / b_pyramid=2 / b_adapt=2 / b_bias=0 / direct=3 / weightb=1 / open_gop=0 / weightp=2 / keyint=240 / keyint_min=23 / scenecut=40 / intra_refresh=0 / rc=2pass / mbtree=0 / bitrate=1671 / ratetol=1.0 / qcomp=0.70 / qpmin=0:0:0 / qpmax=69:69:69 / qpstep=4 / cplxblur=20.0 / qblur=0.5 / ip_ratio=1.40 / pb_ratio=1.30 / aq=1:1.00 / aq-sensitivity=10.00 / aq-factor=1.00:1.00:1.00 / aq2=0 / aq3=0
Language : English
Default : Yes
Forced : No
Audio
ID : 2
Format : AC-3
Format/Info : Audio Coding 3
Mode extension : CM (complete main)
Format settings, Endianness : Big
Codec ID : A_AC3
Duration : 1h 38mn
Bit rate mode : Constant
Bit rate : 448 Kbps
Channel(s) : 6 channels
Channel positions : Front: L C R, Side: L R, LFE
Sampling rate : 48.0 KHz
Bit depth : 16 bits
Compression mode : Lossy
Stream size : 315 MiB (21%)
Title : DVO
Language : Russian
Default : Yes
Forced : No
Menu
00:00:00.000 : en:00:00:00.000
00:08:35.598 : en:00:08:35.598
00:16:44.295 : en:00:16:44.295
00:24:59.998 : en:00:24:59.998
00:37:21.448 : en:00:37:21.448
00:42:16.200 : en:00:42:16.200
00:48:20.356 : en:00:48:20.356
00:55:27.032 : en:00:55:27.032
01:07:48.731 : en:01:07:48.731
01:13:20.146 : en:01:13:20.146
01:19:58.711 : en:01:19:58.711
01:27:23.071 : en:01:27:23.071
Скриншот c названием фильма Скриншоты
Скачать

Скачать торрент!

Как скачивать? · Что такое торрент? · Рейтинг и ограничения

Сайт не распространяет и не хранит электронные версии произведений, а лишь предоставляет доступ к создаваемому пользователями каталогу ссылок на торрент-файлы, которые содержат только списки хеш-сумм

[Профиль] [ЛС]
Показать сообщения:    
Ответить на тему

Текущее время: Сегодня 21:54

Часовой пояс: GMT + 4



Вы не можете начинать темы
Вы не можете отвечать на сообщения
Вы не можете редактировать свои сообщения
Вы не можете удалять свои сообщения
Вы не можете голосовать в опросах
Вы не можете прикреплять файлы к сообщениям
Вы не можете скачивать файлы