Мастер Багуа / Сказание о наставнике Ба-гуа / Мастер кунг-фу / The Kungfu Master / Ba Gua Zong Shi (Оу Лихао / Ou Li-Hao) [2012, Китай, боевые искусства, драма, DVDScreener] VO

Ответить на тему
 
Автор Сообщение

user ®

Стаж: 11 лет

Сообщений: 15151

Пост Пост: #1 от 05-Май-2014 20:35

[Цитировать]

Мастер кунг-фу / Мастер Багуа / Сказание о наставнике Багуа / The Kungfu Master / Ba Gua Zong Shi
Страна: Китай
Жанр: боевые искусства, драма
Год выпуска: 2012
Продолжительность: 01:50:18
Перевод: Одноголосый закадровый
Cубтитры: китайский/английский хардсаб
Режиссер: Оу Лихао / Ou Li-Hao
В ролях: Цзе Миу, Оу Лихао, Ванг Мей-Йинг, Брюс Леунг, Чанг Тао
Описание: Дун Хайчуань — юный мастер кунг-фу, который на свою беду встает на пути у сына влиятельного чиновника. Тот пытается проучить обнаглевшую деревенщину, но в конце концов погибает сам, а Дун оказывается вне закона. Ему приходится уйти из дома и отправиться в странствия, в которых он сменит несколько учителей и в конце концов превратится в настоящего виртуоза боевых искусств.
Релиз группы:
Доп. информация: Перевод на русский "Будо-Видео"
Озвучивание Ворон
Прежде чем качать видео и комментировать, скачайте сэмпл и послушайте!
Качество видео: DVDScreener - Сэмпл
Формат видео: AVI
Видео: 704x288 (2.44:1), 23.976 fps, XviD build 50 ~1705 kbps avg, 0.35 bit/pixel
Аудио: 48 kHz, AC3 Dolby Digital, 2/0 (L,R) ch, ~192 kbps
Скриншоты отчет MediaInfo
Формат : AVI
Формат/Информация : Audio Video Interleave
Размер файла : 1,47 Гбайт
Продолжительность : 1 ч. 50 м.
Общий поток : 1907 Кбит/сек
Программа кодирования : VirtualDubMod 1.5.10.2 (build 2542/release)
Библиотека кодирования : VirtualDubMod build 2542/release
Видео
Идентификатор : 0
Формат : MPEG-4 Visual
Профиль формата : Advanced Simple@L5
Параметр BVOP формата : 2
Параметр QPel формата : Нет
Параметр GMC формата : Без точки перехода
Параметр матрицы формата : Default (MPEG)
Идентификатор кодека : XVID
Идентификатор кодека/Подсказка : XviD
Продолжительность : 1 ч. 50 м.
Битрейт : 1706 Кбит/сек
Ширина : 704 пикселя
Высота : 288 пикселей
Соотношение сторон : 2,40:1
Частота кадров : 23,976 кадра/сек
Цветовое пространство : YUV
Субдискретизация насыщенности : 4:2:0
Битовая глубина : 8 бит
Тип развёртки : Прогрессивная
Метод сжатия : С потерями
Бит/(Пиксели*Кадры) : 0.351
Размер потока : 1,31 Гбайт (89%)
Библиотека кодирования : XviD 1.2.1 (UTC 2008-12-04)
Аудио
Идентификатор : 1
Формат : AC-3
Формат/Информация : Audio Coding 3
Расширение режима : CM (complete main)
Параметр Endianness формата : Big
Идентификатор кодека : 2000
Продолжительность : 1 ч. 50 м.
Вид битрейта : Постоянный
Битрейт : 192 Кбит/сек
Каналы : 2 канала
Расположение каналов : Front: L R
Частота : 48,0 КГц
Битовая глубина : 16 бит
Метод сжатия : С потерями
Размер потока : 151 Мбайт (10%)
Выравнивание : Разделение по промежуткам
Продолжительность промежутка : 42 мс. (1,00 видеокадр)
Время предзагрузки промежутка : 500 мс.
Скачать

Скачать торрент! Мастер Багуа / Сказание о наставнике Ба-гуа / Мастер кунг-фу / The Kungfu Master / Ba Gua Zong Shi (Оу Лихао / Ou Li-Hao) [2012, Китай, боевые искусства, драма, DVDScreener] VO

Как скачивать? · Что такое торрент? · Рейтинг и ограничения

Сайт не распространяет и не хранит электронные версии произведений, а лишь предоставляет доступ к создаваемому пользователями каталогу ссылок на торрент-файлы, которые содержат только списки хеш-сумм

[Профиль] [ЛС]
Показать сообщения:    
Ответить на тему

Текущее время: Сегодня 17:34

Часовой пояс: GMT + 4



Вы не можете начинать темы
Вы не можете отвечать на сообщения
Вы не можете редактировать свои сообщения
Вы не можете удалять свои сообщения
Вы не можете голосовать в опросах
Вы не можете прикреплять файлы к сообщениям
Вы не можете скачивать файлы