Я тебя никогда не забуду (Рано Кубаева) [2013, мелодрама, HDTVRip]

Ответить на тему
 
Автор Сообщение

user ®

Стаж: 7 лет 7 месяцев

Сообщений: 20008

Пост Пост: #1 от 05-Май-2014 20:35

[Цитировать]

Я тебя никогда не забуду- Страна: Россия
Жанр: мелодрама
Год выпуска: 2013
Продолжительность: 01:25:00-Перевод: Не требуется
Cубтитры: отсутствуют-Режиссер: Рано Кубаева
В ролях: Екатерина Климова, Анатолий Белый, Виталий Хаев, Анастасия Лапина, Павел Юлку, Сергей Губанов, Артём Казьмин, Марта Дроздова, Елизавета Васильева-Описание
Вера — жена олигарха, дама с несносным характером по прозвищу Мымра. Больше всего попреков достается ее водителю Сергею, тайно влюбленному в свою капризную хозяйку.
Вероятно, эта любовь так и осталась бы тайной, если бы судьба не сыграла с Верой злую шутку. В автокатастрофе героиня полностью теряет память, а, придя в себя, «узнаёт», что она жена Сергея, примерная хозяйка и учительница младших классов, беззаветно любящая свою большую семью…
-
Download sample-Качество видео: HDTVRip |
Формат видео: AVI-Видео: 720x400 (1.80:1), 25 fps, XviD build 73 ~2241 kbps avg, 0.31 bit/pixel
Аудио: 48 kHz, AC3 Dolby Digital, 2/0 (L,R) ch, ~192 kbps | Не требуется-

MediaInfo
General
Complete name : D:\Фильмы\Рипы\Я тебя никогда не забуду.2013.HDTVRip.Fredd Kruger.avi
Format : AVI
Format/Info : Audio Video Interleave
File size : 1.46 GiB
Duration : 1h 25mn
Overall bit rate : 2 443 Kbps
Writing application : VirtualDubMod 1.5.10.3 | www.virtualdub-fr.org || (build 2550/release)
Writing library : VirtualDubMod build 2550/release
Video
ID : 0
Format : MPEG-4 Visual
Format profile : Advanced Simple@L5
Format settings, BVOP : 1
Format settings, QPel : No
Format settings, GMC : No warppoints
Format settings, Matrix : Custom
Codec ID : XVID
Codec ID/Hint : XviD
Duration : 1h 25mn
Bit rate : 2 241 Kbps
Width : 720 pixels
Height : 400 pixels
Display aspect ratio : 16:9
Frame rate : 25.000 fps
Color space : YUV
Chroma subsampling : 4:2:0
Bit depth : 8 bits
Scan type : Progressive
Compression mode : Lossy
Bits/(Pixel*Frame) : 0.311
Stream size : 1.34 GiB (92%)
Writing library : XviD 73
Audio
ID : 1
Format : AC-3
Format/Info : Audio Coding 3
Mode extension : CM (complete main)
Format settings, Endianness : Big
Codec ID : 2000
Duration : 1h 25mn
Bit rate mode : Constant
Bit rate : 192 Kbps
Channel count : 2 channels
Channel positions : Front: L R
Sampling rate : 48.0 KHz
Bit depth : 16 bits
Compression mode : Lossy
Stream size : 118 MiB (8%)
Alignment : Split accross interleaves
Interleave, duration : 40 ms (1.00 video frame)
Interleave, preload duration : 500 ms
Screenshots
Скачать

Скачать торрент!

Как скачивать? · Что такое торрент? · Рейтинг и ограничения

Сайт не распространяет и не хранит электронные версии произведений, а лишь предоставляет доступ к создаваемому пользователями каталогу ссылок на торрент-файлы, которые содержат только списки хеш-сумм

[Профиль] [ЛС]
Показать сообщения:    
Ответить на тему

Текущее время: Сегодня 22:27

Часовой пояс: GMT + 4



Вы не можете начинать темы
Вы не можете отвечать на сообщения
Вы не можете редактировать свои сообщения
Вы не можете удалять свои сообщения
Вы не можете голосовать в опросах
Вы не можете прикреплять файлы к сообщениям
Вы не можете скачивать файлы