Помпеи / Pompeii (Пол У. С. Андерсон / Paul W.S. Anderson) [2014, Канада, Германия, боевик, драма, мелодрама, приключения, BDRip-AVC] Dub (Line)

Ответить на тему
 
Автор Сообщение

user ®

Стаж: 7 лет 7 месяцев

Сообщений: 20008

Пост Пост: #1 от 05-Май-2014 20:35

[Цитировать]

Помпеи | Pompeii- Год выпуска: 2014
Страна: Канада, Германия
Жанр: боевик, драма, мелодрама, приключения
Продолжительность: 01:44:59
Перевод:

  • Профессиональный (дублированный) (Line)
    Субтитры: нет-Режиссер: Пол У. С. Андерсон / Paul W.S. Anderson-В ролях: Кит Харингтон / Kit Harington, Эмили Браунинг / Emily Browning, Кифер Сазерленд / Kiefer Sutherland, Адевале Акинойе-Агбаже / Adewale Akinnuoye-Agbaje, Джаред Харрис / Jared Harris, Кэрри-Энн Мосс / Carrie-Anne Moss, Джессика Лукас / Jessica Lucas, Саша Ройз / Sasha Roiz, Джо Пинг / Joe Pingue, Карри Грэм / Currie Graham ...-Описание: История любви раба Майло и благородной Кассии, обрученной с римским сенатором, на фоне извержения Везувия, которое навсегда стерло с лица земли древнеримский город Помпеи.-Kinopoisk | IMDB | Sample-Качество: BDRip-AVC | [BDRemux 1080p]
    Формат: MKV
    Видео кодек: x264
    Аудио кодек: AC3
    Видео: 960х400 (2.40:1) | 23,976fps | 1612Kbps | Bits/(Pixel*Frame) : 0.175
    Аудио: AC3 | 2ch | 48kHz | 320kbps | RUS [Line]-

    MediaInfo / log x264
    logx264
x264 [info]: frame I:1533 Avg QP:17.33 size: 62867 PSNR Mean Y:46.11 U:49.86 V:50.61 Avg:46.97 Global:45.91
x264 [info]: frame P:33980 Avg QP:21.33 size: 16347 PSNR Mean Y:43.66 U:48.76 V:49.77 Avg:44.66 Global:43.35
x264 [info]: frame B:115518 Avg QP:23.34 size: 5598 PSNR Mean Y:42.98 U:49.30 V:50.45 Avg:44.07 Global:42.59
x264 [info]: consecutive B-frames: 2.3% 2.7% 7.9% 34.2% 16.6% 22.7% 4.1% 3.5% 1.2% 3.4% 0.7% 0.5%
x264 [info]: mb I I16..4: 8.1% 63.3% 28.7%
x264 [info]: mb P I16..4: 0.9% 11.2% 2.0% P16..4: 30.6% 32.5% 11.0% 2.5% 0.4% skip: 8.9%
x264 [info]: mb B I16..4: 0.1% 1.5% 0.3% B16..8: 34.7% 17.8% 2.9% direct: 4.8% skip:38.0% L0:42.9% L1:45.4% BI:11.7%
x264 [info]: 8x8 transform intra:77.2% inter:67.2%
x264 [info]: direct mvs spatial:99.7% temporal:0.3%
x264 [info]: coded y,uvDC,uvAC intra: 87.9% 82.7% 53.1% inter: 22.7% 17.3% 2.4%
x264 [info]: i16 v,h,dc,p: 22% 11% 8% 60%
x264 [info]: i8 v,h,dc,ddl,ddr,vr,hd,vl,hu: 8% 7% 5% 10% 15% 14% 14% 13% 14%
x264 [info]: i4 v,h,dc,ddl,ddr,vr,hd,vl,hu: 10% 8% 5% 9% 15% 14% 14% 12% 14%
x264 [info]: i8c dc,h,v,p: 38% 23% 19% 20%
x264 [info]: Weighted P-Frames: Y:14.2% UV:9.0%
x264 [info]: ref P L0: 48.3% 13.8% 15.1% 6.4% 4.5% 3.6% 2.9% 1.8% 1.6% 1.4% 0.4% 0.0%
x264 [info]: ref B L0: 78.0% 9.8% 4.9% 2.4% 1.7% 1.3% 1.1% 0.5% 0.3%
x264 [info]: ref B L1: 93.7% 6.3%
x264 [info]: SSIM Mean Y:0.9794784 (16.878db)
x264 [info]: PSNR Mean Y:43.165 U:49.182 V:50.299 Avg:44.230
Video
ID : 1
Format : AVC
Format/Info : Advanced Video Codec
Format profile : High@L4.1
Format settings, CABAC : Yes
Format settings, ReFrames : 10 frames
Codec ID : V_MPEG4/ISO/AVC
Duration : 1h 44mn
Bit rate : 1 612 Kbps
Width : 960 pixels
Height : 400 pixels
Display aspect ratio : 2.40:1
Frame rate mode : Constant
Frame rate : 23.976 fps
Color space : YUV
Chroma subsampling : 4:2:0
Bit depth : 8 bits
Scan type : Progressive
Bits/(Pixel*Frame) : 0.175
Stream size : 1.18 GiB (82%)
Writing library : x264 core 142 r2431+42 c69a006 tMod [8-bit@all X86]
Encoding settings : cabac=1 / ref=10 / deblock=1:-2:-1 / analyse=0x3:0x133 / me=umh / subme=11 / psy=1 / fade_compensate=0.00 / psy_rd=1.05:0.15 / mixed_ref=1 / me_range=32 / chroma_me=1 / trellis=2 / 8x8dct=1 / cqm=0 / deadzone=21,11 / fast_pskip=0 / chroma_qp_offset=-3 / threads=6 / lookahead_threads=1 / sliced_threads=0 / nr=0 / decimate=1 / interlaced=0 / bluray_compat=0 / constrained_intra=0 / fgo=0 / bframes=11 / b_pyramid=2 / b_adapt=2 / b_bias=0 / direct=3 / weightb=1 / open_gop=0 / weightp=2 / keyint=250 / keyint_min=23 / scenecut=40 / intra_refresh=0 / rc_lookahead=40 / rc=crf / mbtree=1 / crf=20.5100 / qcomp=0.70 / qpmin=0:0:0 / qpmax=69:69:69 / qpstep=4 / vbv_maxrate=50000 / vbv_bufsize=62500 / crf_max=0.0 / nal_hrd=none / filler=0 / ip_ratio=1.40 / aq=3:1.00 / aq-sensitivity=10.00 / aq-factor=1.00:1.00:1.00 / aq2=0 / aq3=0 / zones=140812,151028,q=40
Default : Yes
Forced : No
Matrix coefficients : BT.709
Audio
ID : 2
Format : AC-3
Format/Info : Audio Coding 3
Mode extension : CM (complete main)
Format settings, Endianness : Big
Codec ID : A_AC3
Duration : 1h 44mn
Bit rate mode : Constant
Bit rate : 320 Kbps
Channel count : 2 channels
Channel positions : Front: L R
Sampling rate : 48.0 KHz
Bit depth : 16 bits
Compression mode : Lossy
Stream size : 240 MiB (16%)
Title : DUB (Line)
Language : Russian
Default : Yes
Forced : No
Menu
00:00:00.000 : en:00:00:00.000
00:05:27.077 : en:00:05:27.077
00:09:51.674 : en:00:09:51.674
00:15:58.457 : en:00:15:58.457
00:19:52.858 : en:00:19:52.858
00:26:45.103 : en:00:26:45.103
00:32:36.621 : en:00:32:36.621
00:38:18.838 : en:00:38:18.838
00:47:35.811 : en:00:47:35.811
00:52:17.718 : en:00:52:17.718
01:03:25.218 : en:01:03:25.218
01:09:02.930 : en:01:09:02.930
01:17:27.309 : en:01:17:27.309
01:23:46.521 : en:01:23:46.521
01:30:04.149 : en:01:30:04.149
01:35:08.119 : en:01:35:08.119

-
Скриншоты -
Скачать

Скачать торрент!

Как скачивать? · Что такое торрент? · Рейтинг и ограничения

Сайт не распространяет и не хранит электронные версии произведений, а лишь предоставляет доступ к создаваемому пользователями каталогу ссылок на торрент-файлы, которые содержат только списки хеш-сумм

[Профиль] [ЛС]
Показать сообщения:    
Ответить на тему

Текущее время: Сегодня 13:41

Часовой пояс: GMT + 4



Вы не можете начинать темы
Вы не можете отвечать на сообщения
Вы не можете редактировать свои сообщения
Вы не можете удалять свои сообщения
Вы не можете голосовать в опросах
Вы не можете прикреплять файлы к сообщениям
Вы не можете скачивать файлы