Я, Франкенштейн / I, Frankenstein (Стюарт Битти / Stuart Beattie) [2014, США, Австралия, фэнтези, боевик, приключения, BDRip 1080p] [US Transfer] Dub + Original (Eng) + Sub (Rus, Eng)

Ответить на тему
 
Автор Сообщение

user ®

Стаж: 7 лет 7 месяцев

Сообщений: 20008

Пост Пост: #1 от 04-Май-2014 18:25

[Цитировать]

Я, Франкенштейн / I, Frankenstein

-
-Страна: США, Австралия
Студия: Hopscotch Features, Lakeshore Entertainment
Жанр: фэнтези, боевик, приключения
Год выпуска: 2014
Продолжительность: 01:32:24--Перевод: Профессиональный (дублированный) Blu-ray
Cубтитры: русские, английские SDH
Оригинальная аудиодорожка: английский--Режиссер: Стюарт Битти / Stuart Beattie
В ролях: Аарон Экхарт, Ивонн Страховски, Миранда Отто, Билл Найи, Джай Кортни, Сократис Отто, Аден Янг, Кэйтлин Стэйси, Махеш Джаду, Стив Музакис--Описание: Он — монстр. Он — двухсотлетний плод безумной фантазии своего создателя. Он — легенда. Мир, в котором он живет, населен древними горгульями и бессмертными демонами, которые сражаются за обладание человечеством. Величественные соборы скрывают огромные арсеналы, за дверьми научных лабораторий проводятся эксперименты по воскрешению мертвых. Война двух кланов могущественных существ достигает своего пика. И только он, Адам, монстр Франкенштейна, в силах ее остановить.--imdb | kinopoisk | Сэмпл--Тип релиза: BDRip 1080p [I, Frankenstein 2014 1080p BluRay DTS x264-DON]
Контейнер: MKV
Видео: MPEG-4 AVC / 18,1 Mbps / 1920x800 / 23,976 fps / 2,40:1 / High Profile 4.1
Аудио 1: Russian DTS / 5.1 / 48 kHz / 1509 kbps / 16 bits |Dub, Blu-ray|
Аудио 2: English DTS / 5.1 / 48 kHz / 1509 kbps / 24 bits |original|
Аудио 3: English AC3 / 2.0 / 48 kHz / 256 kbps / 16 bits |Аудиокомментарии №1|
Аудио 4: English AC3 / 2.0 / 48 kHz / 256 kbps / 16 bits |Аудиокомментарии №2|
Формат субтитров: softsub [SRT]

MediaInfo
Общее
Уникальный идентификатор                 : 202224882476503852642282656877888660251 (0x9823187D93FA7D2F8166AC98BC27E31B)
Полное имя                               : G:\HD\Я Франкенштейн.2014.BDRip.(1080p).mkv
Формат                                   : Matroska
Версия формата                           : Version 4 / Version 2
Размер файла                             : 14,3 Гбайт
Продолжительность                        : 1 ч. 32 м.
Общий поток                              : 22,1 Мбит/сек
Дата кодирования                         : UTC 2014-05-02 15:44:10
Программа кодирования                    : mkvmerge v6.9.1 ('Blue Panther') 64bit built on Apr 18 2014 18:23:38
Библиотека кодирования                   : libebml v1.3.0 + libmatroska v1.4.1
Attachment                               : Yes
Видео
Идентификатор                            : 1
Формат                                   : AVC
Формат/Информация                        : Advanced Video Codec
Профиль формата                          : High@L4.1
Параметр CABAC формата                   : Да
Параметр ReFrames формата                : 5 кадров
Идентификатор кодека                     : V_MPEG4/ISO/AVC
Продолжительность                        : 1 ч. 32 м.
Битрейт                                  : 18,1 Мбит/сек
Ширина                                   : 1920 пикселей
Высота                                   : 800 пикселей
Соотношение сторон                       : 2,40:1
Режим частоты кадров                     : Постоянный
Частота кадров                           : 23,976 кадра/сек
Цветовое пространство                    : YUV
Субдискретизация насыщенности            : 4:2:0
Битовая глубина                          : 8 бит
Тип развёртки                            : Прогрессивная
Бит/(Пиксели*Кадры)                      : 0.492
Размер потока                            : 11,7 Гбайт (82%)
Заголовок                                : I.Frankenstein.2014.1080p.BluRay.DTS.x264-DON
Библиотека кодирования                   : x264 core 140 r2377 1ca7bb9
Настройки программы                      : cabac=1 / ref=5 / deblock=1:-3:-3 / analyse=0x3:0x133 / me=umh / subme=11 / psy=1 / psy_rd=1.05:0.00 / mixed_ref=1 / me_range=48 / chroma_me=1 / trellis=2 / 8x8dct=1 / cqm=0 / deadzone=21,11 / fast_pskip=0 / chroma_qp_offset=-2 / threads=12 / lookahead_threads=2 / sliced_threads=0 / nr=0 / decimate=0 / interlaced=0 / bluray_compat=0 / constrained_intra=0 / bframes=8 / b_pyramid=2 / b_adapt=2 / b_bias=0 / direct=3 / weightb=1 / open_gop=0 / weightp=2 / keyint=240 / keyint_min=23 / scenecut=40 / intra_refresh=0 / rc_lookahead=60 / rc=crf / mbtree=0 / crf=16.4 / qcomp=0.60 / qpmin=0 / qpmax=69 / qpstep=4 / vbv_maxrate=62500 / vbv_bufsize=78125 / crf_max=0.0 / nal_hrd=none / filler=0 / ip_ratio=1.30 / pb_ratio=1.20 / aq=1:0.72
Язык                                     : English
Default                                  : Да
Forced                                   : Нет
Аудио #1
Идентификатор                            : 2
Формат                                   : DTS
Формат/Информация                        : Digital Theater Systems
Режим                                    : 16
Параметр Endianness формата              : Big
Идентификатор кодека                     : A_DTS
Продолжительность                        : 1 ч. 32 м.
Вид битрейта                             : Постоянный
Битрейт                                  : 1509 Кбит/сек
Каналы                                   : 6 каналов
Расположение каналов                     : Front: L C R, Side: L R, LFE
Частота                                  : 48,0 КГц
Битовая глубина                          : 16 бит
Метод сжатия                             : С потерями
Размер потока                            : 997 Мбайт (7%)
Заголовок                                : Dub, Blu-ray
Язык                                     : Russian
Default                                  : Да
Forced                                   : Нет
Аудио #2
Идентификатор                            : 3
Формат                                   : DTS
Формат/Информация                        : Digital Theater Systems
Режим                                    : 16
Параметр Endianness формата              : Big
Идентификатор кодека                     : A_DTS
Продолжительность                        : 1 ч. 32 м.
Вид битрейта                             : Постоянный
Битрейт                                  : 1509 Кбит/сек
Каналы                                   : 6 каналов
Расположение каналов                     : Front: L C R, Side: L R, LFE
Частота                                  : 48,0 КГц
Битовая глубина                          : 24 бит
Метод сжатия                             : С потерями
Размер потока                            : 997 Мбайт (7%)
Язык                                     : English
Default                                  : Нет
Forced                                   : Нет
Аудио #3
Идентификатор                            : 4
Формат                                   : AC-3
Формат/Информация                        : Audio Coding 3
Расширение режима                        : CM (complete main)
Параметр Endianness формата              : Big
Идентификатор кодека                     : A_AC3
Продолжительность                        : 1 ч. 32 м.
Вид битрейта                             : Постоянный
Битрейт                                  : 256 Кбит/сек
Каналы                                   : 2 канала
Расположение каналов                     : Front: L R
Частота                                  : 48,0 КГц
Битовая глубина                          : 16 бит
Метод сжатия                             : С потерями
Размер потока                            : 169 Мбайт (1%)
Заголовок                                : Аудиокомментарии №1
Язык                                     : English
Default                                  : Нет
Forced                                   : Нет
Аудио #4
Идентификатор                            : 5
Формат                                   : AC-3
Формат/Информация                        : Audio Coding 3
Расширение режима                        : CM (complete main)
Параметр Endianness формата              : Big
Идентификатор кодека                     : A_AC3
Продолжительность                        : 1 ч. 32 м.
Вид битрейта                             : Постоянный
Битрейт                                  : 256 Кбит/сек
Каналы                                   : 2 канала
Расположение каналов                     : Front: L R
Частота                                  : 48,0 КГц
Битовая глубина                          : 16 бит
Метод сжатия                             : С потерями
Размер потока                            : 169 Мбайт (1%)
Заголовок                                : Аудиокомментарии №2
Язык                                     : English
Default                                  : Нет
Forced                                   : Нет
Текст #1
Идентификатор                            : 6
Формат                                   : UTF-8
Идентификатор кодека                     : S_TEXT/UTF8
Идентификатор кодека/Информация          : UTF-8 Plain Text
Язык                                     : Russian
Default                                  : Нет
Forced                                   : Нет
Текст #2
Идентификатор                            : 7
Формат                                   : UTF-8
Идентификатор кодека                     : S_TEXT/UTF8
Идентификатор кодека/Информация          : UTF-8 Plain Text
Заголовок                                : SDH
Язык                                     : English
Default                                  : Нет
Forced                                   : Нет
Меню
00:00:00.000                             : :Chapter 01
00:02:28.857                             : :Chapter 02
00:04:56.421                             : :Chapter 03
00:09:19.767                             : :Chapter 04
00:12:02.471                             : :Chapter 05
00:17:39.725                             : :Chapter 06
00:21:26.994                             : :Chapter 07
00:24:58.497                             : :Chapter 08
00:29:42.614                             : :Chapter 09
00:33:49.569                             : :Chapter 10
00:37:56.274                             : :Chapter 11
00:43:54.631                             : :Chapter 12
00:48:23.233                             : :Chapter 13
00:52:29.187                             : :Chapter 14
00:56:04.736                             : :Chapter 15
00:59:56.301                             : :Chapter 16
01:06:15.513                             : :Chapter 17
01:08:58.467                             : :Chapter 18
01:12:59.333                             : :Chapter 19
01:16:24.538                             : :Chapter 20
01:20:22.859                             : :Chapter 21
01:22:00.665                             : :Chapter 22
Скриншоты I, Frankenstein 2014 1080p BluRay DTS x264-DON
I.Frankenstein.2014.1080p.BluRay.DTS.x264-DON
RELEASE DATE......: 01/05/2014
RELEASE SIZE......: 12.95 GB
RUNTIME...........: 1h:32m:23s
VIDEO CODEC.......: x264, CRF 16.4, L4.1
VIDEO BITRATE.....: Variable @ 18.2 Mbps
RESOLUTION........: 1920x800
FRAMERATE.........: 23.976 fps
AUDIO.............: English DTS core 5.1 @ 1509 Kbps
SUBTITLES - SRT...: English SDH
CHAPTERS..........: yes
SOURCE............: Blu-ray
x264 [info]: frame I:1315  Avg QP:15.35  size:230309
x264 [info]: frame P:30070 Avg QP:16.99  size:134959
x264 [info]: frame B:101532 Avg QP:18.28  size: 83718
x264 [info]: consecutive B-frames:  2.6%  5.5%  6.7% 17.6% 18.5% 42.2%  5.0%  0.9%  1.2%
encoded 132917 frames, 4.64 fps, 18559.43 kb/s
Source vs Encode




Скачать

Скачать торрент!

Как скачивать? · Что такое торрент? · Рейтинг и ограничения

Сайт не распространяет и не хранит электронные версии произведений, а лишь предоставляет доступ к создаваемому пользователями каталогу ссылок на торрент-файлы, которые содержат только списки хеш-сумм

[Профиль] [ЛС]
Показать сообщения:    
Ответить на тему

Текущее время: Сегодня 07:01

Часовой пояс: GMT + 4



Вы не можете начинать темы
Вы не можете отвечать на сообщения
Вы не можете редактировать свои сообщения
Вы не можете удалять свои сообщения
Вы не можете голосовать в опросах
Вы не можете прикреплять файлы к сообщениям
Вы не можете скачивать файлы