Колесо любви (Эрнест Ясан) [1994 г., комедия, мелодрама, DVDRip]

Ответить на тему
 
Автор Сообщение

user ®

Стаж: 7 лет 7 месяцев

Сообщений: 20008

Пост Пост: #1 от 04-Май-2014 18:25

[Цитировать]

-Колесо любви--Год выпуска: 1994
Жанр: комедия, мелодрама
Продолжительность: 01:23:25--Режиссер: Эрнест Ясан--В ролях:
Михаил Пореченков, Мария Липкина, Анна Самохина, Иван Краско, Евгений Ермолин, Арташес Алексанян, Зоя Буряк, Игорь Дмитриев, Елена Рудь, Анатолий Горин, Валентина Ковель, Татьяна Григорьева, Людвиг Шунке, Денис Синявский, Зоя Шатохина, Ирина Сабанова, Максим Ясан, Лидия Никитина, Мария Кузнецова
--Описание:
Кирилл — мечта и предел желаний многих женщин. Он служит юношей по вызову в фирме, оказывающей интимные услуги. На него большой спрос, он прилично зарабатывает, но сердце Кирилла жаждет большой и чистой любви и она приходит в образе черноокой дикой горянки-беженки. Диана работает все в том же заведении уборщицей, она влюблена в Кирилла и то и дело срывает образцовое выполнение Кириллом его обязанностей. Кирилл влюбляется в Диану, но подступиться к ней трудно — ее охраняют два брата-горца, готовых оторвать голову каждому, кто приблизится к их сестре, девушку прочат в жены богатому старику с Кавказа…
-Доп. информация:- -Сэмпл Рип совместим с бытовыми DVD-проигрывателями.--Качество видео: DVDRip
Формат видео: AVI
Видео: 672x512 (1.31:1), 25 fps, XviD build 73 ~2290 kbps avg, 0.27 bit/pixel
Аудио: 48 kHz, AC3 Dolby Digital, 2/0 (L,R) ch, 192 kbps-
MediaInfo
General
Complete name : \Koleso_lubvi_(1994).DVDRip.XviD.AC3_[All.Films][RG].avi
Format : AVI
Format/Info : Audio Video Interleave
File size : 1.45 GiB
Duration : 1h 23mn
Overall bit rate : 2 492 Kbps
Movie name : Колесо любви (1994) DVDRip | [All.Films][RG]
Director : |
Writing application : VirtualDubMod 1.5.10.3 | www.virtualdub-fr.org || (build 2550/release)
Video
ID : 0
Format : MPEG-4 Visual
Format profile : Advanced Simple@L5
Format settings, BVOP : 2
Format settings, QPel : No
Format settings, GMC : No warppoints
Format settings, Matrix : Custom
Codec ID : XVID
Codec ID/Hint : XviD
Duration : 1h 23mn
Bit rate : 2 290 Kbps
Width : 672 pixels
Height : 512 pixels
Display aspect ratio : 4:3
Frame rate : 25.000 fps
Color space : YUV
Chroma subsampling : 4:2:0
Bit depth : 8 bits
Scan type : Progressive
Compression mode : Lossy
Bits/(Pixel*Frame) : 0.266
Stream size : 1.34 GiB (92%)
Writing library : XviD 73
Audio
ID : 1
Format : AC-3
Format/Info : Audio Coding 3
Mode extension : CM (complete main)
Format settings, Endianness : Big
Codec ID : 2000
Duration : 1h 23mn
Bit rate mode : Constant
Bit rate : 192 Kbps
Channel count : 2 channels
Channel positions : Front: L R
Sampling rate : 48.0 KHz
Bit depth : 16 bits
Compression mode : Lossy
Stream size : 115 MiB (8%)
Alignment : Split accross interleaves
Interleave, duration : 40 ms (1.00 video frame)
Interleave, preload duration : 500 ms
Скриншоты Примечание.
В исходнике и в старом релизе, звуковая дорожка имеет дефект - звуковые каналы записаны в противофазе. В результате этого звук "размазан" по панораме. Звучит соответственно.
Выглядит это таким образом:
скрытый текст В данном релизе звуковая дорожка исправлена.
Для сравнения: http://multi-up.com/970527 (видео из старой раздачи).
Первая дорожка оригинал, вторая исправленная.
Скачать

Скачать торрент!

Как скачивать? · Что такое торрент? · Рейтинг и ограничения

Сайт не распространяет и не хранит электронные версии произведений, а лишь предоставляет доступ к создаваемому пользователями каталогу ссылок на торрент-файлы, которые содержат только списки хеш-сумм

[Профиль] [ЛС]
Показать сообщения:    
Ответить на тему

Текущее время: Сегодня 23:21

Часовой пояс: GMT + 4



Вы не можете начинать темы
Вы не можете отвечать на сообщения
Вы не можете редактировать свои сообщения
Вы не можете удалять свои сообщения
Вы не можете голосовать в опросах
Вы не можете прикреплять файлы к сообщениям
Вы не можете скачивать файлы