Лорд Дракон / Lord Dragon / Dragon Strike / Long xiao ye (боевик, комедия, спорт) [1982, Китай, Гонконг, боевик, комедия, спорт, HDRip] DVO

Ответить на тему
 
Автор Сообщение

user ®

Стаж: 13 лет

Сообщений: 15071

Пост Пост: #1 от 04-Май-2014 08:55

[Цитировать]

Лорд Дракон / Lord Dragon / Dragon Strike / Long xiao ye- -Страна: Китай, Гонконг
Жанр: боевик, комедия, спорт
Год выпуска: 1982
Продолжительность: 01:42:31-Перевод: Профессиональный (двухголосый закадровый) + вставки Любительсокго одноголосого - jgorrr1 - 10 минут переведены вырезанные сцены + 5 минут не переведено
Cубтитры: нет
Оригинальная аудиодорожка: нет
Режиссер: боевик, комедия, спорт
В ролях: Джеки Чан, Уай-Ман Чан, Пол Чанг, Хонг-Йп Чэн, Чунг Ва, Фанг Фенг, Фунг Харк-Он, Кам-Квон Хо, Кан Хо, Пак-Квон Хо ...
Описание: Лунгшан — сонный провинциальный городок на юге Китая. Ничего, кроме ветхого «культурного наследия» здесь нет. Два закадычных друга случайно становятся свидетелями криминальной разборки. Сами того не желая, воспрепятствовав вывозу за границу ценнейших экземпляров Китайского искусства, друзья оказываются втянутыми в борьбу за сферы влияния.
Релиз от -
Сэмпл: http://multi-up.com/971463
Качество видео: HDRip
Формат видео: AVI
Видео: MPEG-4 Visual at 1838 Кбит/сек; 720 x 304 (2.368) at 23.976 fps
Аудио: AC-3 at 192 Кбит/сек; 2 канала, 48,0 КГц
Автор рипа :
MediaInfo
бщее
Полное имя : D:\Фильмы\Азиатские\Лорд Дракон\Dragon Lord.1982. HDRip.XviD.1400MB. rip by [Assassin's Creed].avi
Формат : AVI
Формат/Информация : Audio Video Interleave
Размер файла : 1,46 Гбайт
Продолжительность : 1 ч. 42 м.
Общий поток : 2039 Кбит/сек
Программа кодирования : VirtualDubMod 1.5.10.3 | www.virtualdub-fr.org || (build 2550/release)
Библиотека кодирования : VirtualDubMod build 2550/release
Видео
Идентификатор : 0
Формат : MPEG-4 Visual
Профиль формата : Advanced Simple@L5
Параметр BVOP формата : 1
Параметр QPel формата : Нет
Параметр GMC формата : Без точки перехода
Параметр матрицы формата : Default (MPEG)
Идентификатор кодека : XVID
Идентификатор кодека/Подсказка : XviD
Продолжительность : 1 ч. 42 м.
Битрейт : 1838 Кбит/сек
Ширина : 720 пикселей
Высота : 304 пикселя
Соотношение сторон : 2,35:1
Частота кадров : 23,976 кадра/сек
Цветовое пространство : YUV
Субдискретизация насыщенности : 4:2:0
Битовая глубина : 8 бит
Тип развёртки : Прогрессивная
Метод сжатия : С потерями
Бит/(Пиксели*Кадры) : 0.350
Размер потока : 1,32 Гбайт (90%)
Библиотека кодирования : XviD 1.2.1 (UTC 2008-12-04)
Аудио
Идентификатор : 1
Формат : AC-3
Формат/Информация : Audio Coding 3
Расширение режима : CM (complete main)
Параметр Endianness формата : Big
Идентификатор кодека : 2000
Продолжительность : 1 ч. 42 м.
Вид битрейта : Постоянный
Битрейт : 192 Кбит/сек
Каналы : 2 канала
Расположение каналов : Front: L R
Частота : 48,0 КГц
Битовая глубина : 16 бит
Метод сжатия : С потерями
Размер потока : 141 Мбайт (9%)
Выравнивание : Разделение по промежуткам
Продолжительность промежутка : 42 мс. (1,00 видеокадр)
Время предзагрузки промежутка : 500 мс.
Скриншот c названием фильма Скриншоты
Скачать

Скачать торрент! Лорд Дракон / Lord Dragon / Dragon Strike / Long xiao ye (боевик, комедия, спорт) [1982, Китай, Гонконг, боевик, комедия, спорт, HDRip] DVO

Как скачивать? · Что такое торрент? · Рейтинг и ограничения

Сайт не распространяет и не хранит электронные версии произведений, а лишь предоставляет доступ к создаваемому пользователями каталогу ссылок на торрент-файлы, которые содержат только списки хеш-сумм

[Профиль] [ЛС]
Показать сообщения:    
Ответить на тему

Текущее время: Сегодня 10:26

Часовой пояс: GMT + 4



Вы не можете начинать темы
Вы не можете отвечать на сообщения
Вы не можете редактировать свои сообщения
Вы не можете удалять свои сообщения
Вы не можете голосовать в опросах
Вы не можете прикреплять файлы к сообщениям
Вы не можете скачивать файлы