Не делайте бисквиты в плохом настроении (Алексей Горовацкий, Игорь Волосецкий) [2014, драма, DVB]

Ответить на тему
 
Автор Сообщение

user ®

Стаж: 7 лет 7 месяцев

Сообщений: 20008

Пост Пост: #1 от 04-Май-2014 00:15

[Цитировать]

Не делайте бисквиты в плохом настроении
Жанр: драма
Год выпуска: 2014
Продолжительность: 01:08:33
Режиссёр: Алексей Горовацкий, Игорь Волосецкий
В ролях: Фёдор Степанов, Ирэна Дубровская
Описание: Героиня - современная жительница Петербурга, женщина бальзаковского возраста. Она считает себя неудачницей, а судьбу - несложившейся. Случайная встреча с провинциалом сумеет объяснить ей, какая это ценность - жизнь....
Доп. информация: Запись потока *.ts со спутника EUTELSAT, ремукс в *.mpg программой VideoReDo.
Сэмпл: http://multi-up.com/971041
Качество видео: DVB
Формат видео: MPEG-PS
Видео: MPEG Video, 720(768)x576 (4:3), 25,000 кадров/сек, 1 147 Кбит/сек
Аудио: MPEG Audio, 48,0 КГц, 192 Кбит/сек, 2 канала
MediaInfo
General
Complete name : D:\MPG\НЕ ДЕЛАЙТЕ БИСКВИТЫ В ПЛОХОМ НАСТРОЕНИИ (Россия К).mpg
Format : MPEG-PS
File size : 675 MiB
Duration : 1h 9mn
Overall bit rate mode : Variable
Overall bit rate : 1 367 Kbps
Video
ID : 224 (0xE0)
Format : MPEG Video
Format version : Version 2
Format profile : Main@Main
Format settings, BVOP : Yes
Format settings, Matrix : Custom
Format settings, GOP : Variable
Duration : 1h 9mn
Bit rate mode : Variable
Bit rate : 1 147 Kbps
Maximum bit rate : 15.0 Mbps
Width : 720 pixels
Height : 576 pixels
Display aspect ratio : 4:3
Frame rate : 25.000 fps
Standard : PAL
Color space : YUV
Chroma subsampling : 4:2:0
Bit depth : 8 bits
Scan type : Interlaced
Scan order : Top Field First
Compression mode : Lossy
Bits/(Pixel*Frame) : 0.111
Time code of first frame : 00:00:00:00
Time code source : Group of pictures header
Stream size : 567 MiB (84%)
Audio
ID : 192 (0xC0)
Format : MPEG Audio
Format version : Version 1
Format profile : Layer 2
Duration : 1h 9mn
Bit rate mode : Constant
Bit rate : 192 Kbps
Channel count : 2 channels
Sampling rate : 48.0 KHz
Compression mode : Lossy
Delay relative to video : 6ms
Stream size : 94.8 MiB (14%)
Скриншот c названием фильма Скриншоты
Скачать

Скачать торрент!

Как скачивать? · Что такое торрент? · Рейтинг и ограничения

Сайт не распространяет и не хранит электронные версии произведений, а лишь предоставляет доступ к создаваемому пользователями каталогу ссылок на торрент-файлы, которые содержат только списки хеш-сумм

[Профиль] [ЛС]
Показать сообщения:    
Ответить на тему

Текущее время: Сегодня 01:15

Часовой пояс: GMT + 4



Вы не можете начинать темы
Вы не можете отвечать на сообщения
Вы не можете редактировать свои сообщения
Вы не можете удалять свои сообщения
Вы не можете голосовать в опросах
Вы не можете прикреплять файлы к сообщениям
Вы не можете скачивать файлы