Написание кунг-фу / Writing Kung Fu / Hot Dog Kung Fu / Chinese Samson / Wen da (Боло Йен / Bolo Yeung) [1979, Гонконг, боевые искусства, VHSRip] AVO (Сергей Кузнецов)

Ответить на тему
 
Автор Сообщение

user ®

Стаж: 11 лет

Сообщений: 15151

Пост Пост: #1 от 03-Май-2014 17:55

[Цитировать]

Написание кунг-фу / Writing Kung Fu / Hot Dog Kung Fu / Chinese Samson / Wen da
Страна: Гонконг
Жанр: боевые искусства
Год выпуска: 1979
Продолжительность: 01:17:53
Перевод: Авторский (одноголосый закадровый) Сергей Кузнецов
Cубтитры: нет
Режиссер: Боло Йен / Bolo Yeung
В ролях: Джон Чён, Боло Йен, Кэндис Ю, Джонни Чён, Цзян Чжэн, Сяо Юйлун, Шэнь Сянь
Описание: В мирном посёлке Красная Глина начались неприятности, когда обезумевшие мастер боевых искусств Ян (Боло Йен) приезжает в город. Тьма и хаос охватывают землю, и только у одного человека появляется достаточно мужества, чтобы встать и бороться за правду, справедливость, и китайский традиционный образ жизни, - это доведённый до отчаяния учитель (Джон Чён), овладевающий эзотерическим стилем "Письмо Кунг-фу".
Благодарность: За исходник благодарность выражается шурик 555.
Сэмпл: http://multi-up.com/971311
Качество видео: VHSRip
Формат видео: AVI
Видео: 688x304 (2.26:1), 25 fps, XviD build 50 ~2373 kbps avg, 0.45 bit/pixel
Аудио: 48 kHz, MPEG Layer 3, 2 ch, ~128.00 kbps avg
MediaInfo
Format : AVI
Format/Info : Audio Video Interleave
File size : 1,37 Гбайт
Duration : 1 ч. 17 м.
Overall bit rate : 2512 Кбит/сек
Writing application : VirtualDubMod 1.5.10.3 | www.virtualdub-fr.org || (build 2550/release)
Writing library : VirtualDubMod build 2550/release
Видео
ID : 0
Format : MPEG-4 Visual
Format profile : Advanced Simple@L5
Format settings, BVOP : 2
Format settings, QPel : Нет
Format settings, GMC : Без точки перехода
Format settings, Matrix : Default (MPEG)
Codec ID : XVID
Codec ID/Hint : XviD
Duration : 1 ч. 17 м.
Bit rate : 2374 Кбит/сек
Width : 688 пикселей
Height : 304 пикселя
Display aspect ratio : 2,25:1
Frame rate : 25,000 кадров/сек
Color space : YUV
Chroma subsampling : 4:2:0
Bit depth : 8 бит
Scan type : Прогрессивная
Compression mode : С потерями
Bits/(Pixel*Frame) : 0.454
Stream size : 1,29 Гбайт (95%)
Writing library : XviD 1.2.1 (UTC 2008-12-04)
Аудио
ID : 1
Format : MPEG Audio
Format version : Version 1
Format profile : Layer 3
Codec ID : 55
Codec ID/Hint : MP3
Duration : 1 ч. 17 м.
Bit rate mode : Постоянный
Bit rate : 128 Кбит/сек
Channel(s) : 2 канала
Sampling rate : 48,0 КГц
Compression mode : С потерями
Stream size : 71,3 Мбайт (5%)
Alignment : Соединение по промежуткам
Interleave, duration : 40 мс. (1,00 видеокадр)
Interleave, preload duration : 504 мс.
Writing library : LAME3.99r
Encoding settings : -m s -V 4 -q 2 -lowpass 17 -b 128
Скриншоты
Скачать

Скачать торрент! Написание кунг-фу / Writing Kung Fu / Hot Dog Kung Fu / Chinese Samson / Wen da (Боло Йен / Bolo Yeung) [1979, Гонконг, боевые искусства, VHSRip] AVO (Сергей Кузнецов)

Как скачивать? · Что такое торрент? · Рейтинг и ограничения

Сайт не распространяет и не хранит электронные версии произведений, а лишь предоставляет доступ к создаваемому пользователями каталогу ссылок на торрент-файлы, которые содержат только списки хеш-сумм

[Профиль] [ЛС]
Показать сообщения:    
Ответить на тему

Текущее время: Сегодня 10:38

Часовой пояс: GMT + 4



Вы не можете начинать темы
Вы не можете отвечать на сообщения
Вы не можете редактировать свои сообщения
Вы не можете удалять свои сообщения
Вы не можете голосовать в опросах
Вы не можете прикреплять файлы к сообщениям
Вы не можете скачивать файлы