Прошлым летом в Чулимске (Виктор Демент) [2013, драма, HDTVRip]

Ответить на тему
 
Автор Сообщение

user ®

Стаж: 7 лет 7 месяцев

Сообщений: 20008

Пост Пост: #1 от 03-Май-2014 17:55

[Цитировать]

Прошлым летом в Чулимске- Страна: Россия
Жанр: драма
Год выпуска: 2013
Продолжительность: 01:26:01-Перевод: Не требуется
Cубтитры: отсутствуют-Режиссер: Виктор Демент
В ролях: Сергей Безруков, Мария Поезжаева, Анна Невская, Маргарита Шубина, Александр Самойленко-Описание
Жизнь небольшого таежного городка Чулимска вращается вокруг маленького буфета в котором работает молодая девушка Валентина. Валентина влюблена в следователя Шаманова, закрытого, строгого, но обаятельного мужчину, который недавно приехал в Чулимск.
Несмотря на любовные отношения Шаманова с аптекаршей Зиной и его зрелый возраст, Валентина находит в себе мужество признаться Шаманову в любви. До этого момента никогда не замечавший красоту и уникальность Валентины, Шаманов вдруг осознаёт, что эта милая, скромная девушка и есть его счастье…
-
Download sample-Качество видео: HDTVRip |
Формат видео: AVI-Видео: 656x368 (1.78:1), 25 fps, XviD build 73 ~1071 kbps avg, 0.18 bit/pixel
Аудио: 48 kHz, MPEG Layer 3, 2 ch, ~128.00 kbps avg | Не требуется-

MediaInfo
General
Complete name : D:\Фильмы\Рипы\Proshlym.letom.v.Chulimske.2013.HDTVRip.Fredd Kruger.avi
Format : AVI
Format/Info : Audio Video Interleave
File size : 744 MiB
Duration : 1h 26mn
Overall bit rate : 1 210 Kbps
Writing application : VirtualDubMod 1.5.10.3 | www.virtualdub-fr.org || (build 2550/release)
Writing library : VirtualDubMod build 2550/release
Video
ID : 0
Format : MPEG-4 Visual
Format profile : Advanced Simple@L5
Format settings, BVOP : 1
Format settings, QPel : No
Format settings, GMC : No warppoints
Format settings, Matrix : Custom
Codec ID : XVID
Codec ID/Hint : XviD
Duration : 1h 26mn
Bit rate : 1 072 Kbps
Width : 656 pixels
Height : 368 pixels
Display aspect ratio : 16:9
Frame rate : 25.000 fps
Color space : YUV
Chroma subsampling : 4:2:0
Bit depth : 8 bits
Scan type : Progressive
Compression mode : Lossy
Bits/(Pixel*Frame) : 0.178
Stream size : 659 MiB (89%)
Writing library : XviD 73
Audio
ID : 1
Format : MPEG Audio
Format version : Version 1
Format profile : Layer 3
Codec ID : 55
Codec ID/Hint : MP3
Duration : 1h 26mn
Bit rate mode : Constant
Bit rate : 128 Kbps
Channel count : 2 channels
Sampling rate : 48.0 KHz
Compression mode : Lossy
Stream size : 78.7 MiB (11%)
Alignment : Aligned on interleaves
Interleave, duration : 40 ms (1.00 video frame)
Interleave, preload duration : 504 ms
Writing library : LAME3.99r
Encoding settings : -m s -V 4 -q 0 -lowpass 17 -b 128
Screenshots
Скачать

Скачать торрент!

Как скачивать? · Что такое торрент? · Рейтинг и ограничения

Сайт не распространяет и не хранит электронные версии произведений, а лишь предоставляет доступ к создаваемому пользователями каталогу ссылок на торрент-файлы, которые содержат только списки хеш-сумм

[Профиль] [ЛС]
Показать сообщения:    
Ответить на тему

Текущее время: Сегодня 00:15

Часовой пояс: GMT + 4



Вы не можете начинать темы
Вы не можете отвечать на сообщения
Вы не можете редактировать свои сообщения
Вы не можете удалять свои сообщения
Вы не можете голосовать в опросах
Вы не можете прикреплять файлы к сообщениям
Вы не можете скачивать файлы