В спорте только девушки (Евгений Невский) [2014, Комедия, приключения, спорт, BDRip]

Ответить на тему
 
Автор Сообщение

user ®

Стаж: 7 лет 7 месяцев

Сообщений: 20008

Пост Пост: #1 от 03-Май-2014 17:55

[Цитировать]

В спорте только девушки
Жанр: Комедия, приключения, спорт
Год выпуска: 2014
Продолжительность: 01:33:40
Режиссёр: Евгений Невский
В ролях: Лянка Грыу, Александр Головин, Екатерина Вилкова, Илья Глинников, Александр Ведменский, Михаил Трухин, Алена Чехова, Алексей Золотовицкий, Дмитрий Мухамадеев, Татьяна Рыбинец
Описание: Женская сборная по сноуборду ведет подготовку к Играм и направляется в Сочи на тестовые соревнования. Переодевшись в девушек, к ним присоединяются три скрывающихся от погони сноубордиста-фрирайдера. По приезду в Сочи, эти герои фильма «В спорте только девушки» заводят знакомство со спортсменками-американками.

Качество видео: BDRip (Исходник: Blu-Ray Remux (1080p) от ExKinoRay)
Формат видео: AVI
Видео: XviD, 720x304 (2.35:1), 24 кадр/с, 1777 Кбит/с
Аудио: Русский, Dolby AC3, 48000 Гц, 448 Кбит/с, 6 каналов (5.1)

Автор рипа - ivandubskoj
MediaInfo
General
Complete name : V.sporte.tol'ko.devushki.2014.BDRip.avi
Format : AVI
Format/Info : Audio Video Interleave
File size : 1.46 GiB
Duration : 1h 33mn
Overall bit rate : 2 232 Kbps
Movie name : В спорте только девушки (2014) BDRip
Genre : Комедия, приключения, спорт
Recorded date : 03.05.2014
Writing application : VirtualDubMod 1.5.10.3 | www.virtualdub-fr.org || (build 2550/release)
Writing library : VirtualDubMod build 2550/release
Copyright : rip by ivandubskoj
Video
ID : 0
Format : MPEG-4 Visual
Format profile : Advanced Simple@L5
Format settings, BVOP : 1
Format settings, QPel : No
Format settings, GMC : No warppoints
Format settings, Matrix : Default (MPEG)
Codec ID : XVID
Codec ID/Hint : XviD
Duration : 1h 33mn
Bit rate : 1 777 Kbps
Width : 720 pixels
Height : 304 pixels
Display aspect ratio : 2.35:1
Frame rate : 24.000 fps
Color space : YUV
Chroma subsampling : 4:2:0
Bit depth : 8 bits
Scan type : Progressive
Compression mode : Lossy
Bits/(Pixel*Frame) : 0.338
Stream size : 1.16 GiB (80%)
Writing library : XviD 73
Audio
ID : 1
Format : AC-3
Format/Info : Audio Coding 3
Mode extension : CM (complete main)
Codec ID : 2000
Duration : 1h 33mn
Bit rate mode : Constant
Bit rate : 448 Kbps
Channel(s) : 6 channels
Channel positions : Front: L C R, Side: L R, LFE
Sampling rate : 48.0 KHz
Bit depth : 16 bits
Compression mode : Lossy
Stream size : 300 MiB (20%)
Alignment : Split accross interleaves
Interleave, duration : 64 ms (1.54 video frames)
Interleave, preload duration : 500 ms
Title : Russian
Скриншот c названием фильма Скриншоты Я НЕ тупо перезалил раздачу из-за того что её закрыли.
03.05.2014 - Раздача перезалита. Была проблема со звуком, центральный канал уходил в левый.
Исправил, видеоряд, остался старый поменял, только звук. Так что попробуйте перехешировать, частично должно что-то совпасть.
Сэмпл и инфо-файл тоже заменил.
Скачать

Скачать торрент!

Как скачивать? · Что такое торрент? · Рейтинг и ограничения

Сайт не распространяет и не хранит электронные версии произведений, а лишь предоставляет доступ к создаваемому пользователями каталогу ссылок на торрент-файлы, которые содержат только списки хеш-сумм

[Профиль] [ЛС]
Показать сообщения:    
Ответить на тему

Текущее время: Сегодня 06:00

Часовой пояс: GMT + 4



Вы не можете начинать темы
Вы не можете отвечать на сообщения
Вы не можете редактировать свои сообщения
Вы не можете удалять свои сообщения
Вы не можете голосовать в опросах
Вы не можете прикреплять файлы к сообщениям
Вы не можете скачивать файлы