13-й район: Кирпичные особняки / Brick Mansions (Камиль Деламарр / Camille Delamarre) [2014, Франция, Канада, боевик, драма, криминал, CamRip] Dub

Ответить на тему
 
Автор Сообщение

user ®

Стаж: 7 лет 7 месяцев

Сообщений: 20008

Пост Пост: #1 от 03-Май-2014 17:55

[Цитировать]

13-й район: Кирпичные особняки / Brick Mansions
Страна: Франция, Канада
Жанр: боевик, драма, криминал
Год выпуска: 2014
Продолжительность: 01:23:53
Перевод: Профессиональный (дублированный)
Cубтитры: нет
Оригинальная аудиодорожка: нет
Режиссер: Камиль Деламарр / Camille Delamarre
В ролях: Пол Уокер, Давид Белль, RZA, Гучи Бой, Каталина Денис, Аиша Исса, Карло Рота, Андреас Апергис, Ричард Земан, Роберт Мэйллет
Описание: История детектива под прикрытием, ищущего оружие массового уничтожения, похищенное наркодилером гетто Кирпичные дома. Детектив обращается за помощью к знатоку района Лино, единственному человеку, который не боится бандитов.
Сэмпл: http://multi-up.com/971265
Качество видео: CamRip
Формат видео: AVI
Видео: Xvid 720x336 29.97fps 2 003 Kbps
Аудио: MP3 48000Hz stereo 320kbps
MediaInfo
General
Complete name : D:\Brick.Mansions.2014.CAMRip.1400Mb.avi
Format : AVI
Format/Info : Audio Video Interleave
File size : 1.37 GiB
Duration : 1h 23mn
Overall bit rate : 2 334 Kbps
Writing application : VirtualDubMod 1.5.10.2 (build 2540/release)
Writing library : VirtualDubMod build 2540/release
Video
ID : 0
Format : MPEG-4 Visual
Format profile : Advanced Simple@L5
Format settings, BVOP : Yes
Format settings, QPel : No
Format settings, GMC : No warppoints
Format settings, Matrix : Custom
Codec ID : XVID
Codec ID/Hint : XviD
Duration : 1h 23mn
Bit rate : 2 003 Kbps
Width : 720 pixels
Height : 336 pixels
Display aspect ratio : 2.143
Frame rate : 29.970 fps
Color space : YUV
Chroma subsampling : 4:2:0
Bit depth : 8 bits
Scan type : Progressive
Compression mode : Lossy
Bits/(Pixel*Frame) : 0.276
Stream size : 1.17 GiB (86%)
Writing library : XviD 1.2.1 (UTC 2008-12-04)
Audio
ID : 1
Format : MPEG Audio
Format version : Version 1
Format profile : Layer 3
Mode : Joint stereo
Codec ID : 55
Codec ID/Hint : MP3
Duration : 1h 23mn
Bit rate mode : Constant
Bit rate : 320 Kbps
Channel count : 2 channels
Sampling rate : 48.0 KHz
Compression mode : Lossy
Stream size : 192 MiB (14%)
Alignment : Aligned on interleaves
Interleave, duration : 33 ms (1.00 video frame)
Interleave, preload duration : 504 ms
Скриншоты
Скачать

Скачать торрент!

Как скачивать? · Что такое торрент? · Рейтинг и ограничения

Сайт не распространяет и не хранит электронные версии произведений, а лишь предоставляет доступ к создаваемому пользователями каталогу ссылок на торрент-файлы, которые содержат только списки хеш-сумм

[Профиль] [ЛС]
Показать сообщения:    
Ответить на тему

Текущее время: Сегодня 14:48

Часовой пояс: GMT + 4



Вы не можете начинать темы
Вы не можете отвечать на сообщения
Вы не можете редактировать свои сообщения
Вы не можете удалять свои сообщения
Вы не можете голосовать в опросах
Вы не можете прикреплять файлы к сообщениям
Вы не можете скачивать файлы