Орел и решка (Георгий Данелия) [1995, трагикомедия, HDTV 1080i]

Ответить на тему
 
Автор Сообщение

user ®

Стаж: 7 лет 7 месяцев

Сообщений: 20008

Пост Пост: #1 от 03-Май-2014 09:35

[Цитировать]

Орел и решка
Жанр: трагикомедия
Год выпуска: 1995
Продолжительность: 01:21:34
Режиссёр: Георгий Данелия
В ролях: Кирилл Пирогов — Олег Чагин
Полина Кутепова — Зина Прищепкина
Олег Басилашвили — профессор Савицкий
Станислав Говорухин — Зосима Петрович
Леонид Ярмольник — Гоша
Иван Рыжов — Тимофеич
Сергей Швыдкой — Андрей
Наталья Рассиева — Лена Колычева
Геннадий Назаров — Вадик
Ирина Шеламова — Лариска
Павел Сафонов — Валентин, милиционер
Галина Петрова — Клавдия Климова
Юрий Рост — участковый терапевт
Нина Гребешкова — больная
Игорь Верник — Феликс Бармаков
Роман Мадянов — муж Климовой
Екатерина Жемчужная — цыганка
Фёдор Куйбида — Анатолий, хирург
Ольга Машная — медсестра
Зоя Исаева — пенсионерка, просившая прикурить
Юрий Степанов — Герасим
Описание: Главный герой Олег - инженер, приезжает с Севера, где зарабатывал деньги на свадьбу, в Москву. Там оказывается, что невеста Лена уже живет с другим, Вадиком. Олег собирается вернуть Лену обратно. Но все поворачивается так, что Олег увлекается другой девушкой - Зиной. Но узнав, что Лена попала в автокатастрофу и лежит в больнице в тяжёлом состоянии, Олег возвращается в Москву. Он отдает всё, что у него есть, на лекарства, а сам подрабатывает на разных грязных и тяжёлых работах, пытаясь добыть хоть какие-то деньги. Случайно ему встречается Зина, которая приводит Олега домой, лечит и ухаживает за ним. Болезнь длится долго, а когда, наконец, отступает, Олег узнает, что Лена уже выписана из больницы, её состояние не было таким тяжелым, а по иронии судьбы Олег добывал средства на лекарства для однофамилицы Лены, лежавшей в той же палате...
Раздача группы:
Сэмпл
Качество видео: HDTV
Формат видео: TS
Видео: MPEG4 (H264) 1920x1080 (16:9), 10.1 Mbps, 25.00fps 0.195 bit/pixel
Аудио 1: MP2, 2 ch, 48,0 КГц, 224 kbps
Аудио 2: AC-3, 6 ch, 48,0 КГц, 224 kbps
MediaInfo
G:\МЕЛОДРАМЫ\Орел и решка.ts
General #1
ID : 1 (0x1)
Complete name : G:\МЕЛОДРАМЫ\Орел и решка.ts
Format : MPEG-TS
File size : 6.42 GiB
Duration : 1h 21mn
Overall bit rate : 11.3 Mbps
Video #1902
ID : 1902 (0x76E)
Menu ID : 1 (0x1)
Format : AVC
Format/Info : Advanced Video Codec
Format profile : High@L4.0
Format settings, CABAC : Yes
Format settings, ReFrames : 3 frames
Codec ID : 27
Duration : 1h 21mn
Bit rate : 10.1 Mbps
Width : 1 920 pixels
Height : 1 080 pixels
Display aspect ratio : 16:9
Frame rate : 25.000 fps
Standard : Component
Color space : YUV
Chroma subsampling : 4:2:0
Bit depth : 8 bits
Scan type : Interlaced
Scan order : Top Field First
Bits/(Pixel*Frame) : 0.195
Stream size : 5.76 GiB (90%)
Color primaries : BT.709-5, BT.1361, IEC 61966-2-4, SMPTE RP177
Transfer characteristics : BT.709-5, BT.1361
Matrix coefficients : BT.709-5, BT.1361, IEC 61966-2-4 709, SMPTE RP177
Audio #2902
ID : 2902 (0xB56)
Menu ID : 1 (0x1)
Format : MPEG Audio
Format version : Version 1
Format profile : Layer 2
Codec ID : 3
Duration : 1h 21mn
Bit rate mode : Constant
Bit rate : 224 Kbps
Channel(s) : 2 channels
Sampling rate : 48.0 KHz
Compression mode : Lossy
Stream size : 131 MiB (2%)
Language : Russian
Audio #3902
ID : 3902 (0xF3E)
Menu ID : 1 (0x1)
Format : AC-3
Format/Info : Audio Coding 3
Mode extension : CM (complete main)
Format settings, Endianness : Big
Codec ID : 6
Duration : 1h 21mn
Bit rate mode : Constant
Bit rate : 384 Kbps
Channel(s) : 6 channels
Channel positions : Front: L C R, Side: L R, LFE
Sampling rate : 48.0 KHz
Bit depth : 16 bits
Compression mode : Lossy
Stream size : 224 MiB (3%)
Language : Russian
Text #33-888
ID : 33 (0x21)-888
Menu ID : 1 (0x1)
Format : Teletext Subtitle
Language : Russian
Скриншоты
Скачать

Скачать торрент!

Как скачивать? · Что такое торрент? · Рейтинг и ограничения

Сайт не распространяет и не хранит электронные версии произведений, а лишь предоставляет доступ к создаваемому пользователями каталогу ссылок на торрент-файлы, которые содержат только списки хеш-сумм

[Профиль] [ЛС]
Показать сообщения:    
Ответить на тему

Текущее время: Сегодня 23:19

Часовой пояс: GMT + 4



Вы не можете начинать темы
Вы не можете отвечать на сообщения
Вы не можете редактировать свои сообщения
Вы не можете удалять свои сообщения
Вы не можете голосовать в опросах
Вы не можете прикреплять файлы к сообщениям
Вы не можете скачивать файлы