Враг / Enemy (Дени Вильнёв / Denis Villeneuve) [2013, Канада, Испания, триллер, детектив, WEB-DL 720p] VO (Виноградов) + Sub (Rus, Eng) + Original (Eng)

Ответить на тему
 
Автор Сообщение

user ®

Стаж: 7 лет 7 месяцев

Сообщений: 20008

Пост Пост: #1 от 02-Май-2014 22:20

[Цитировать]

-Враг / Enemy- Год выпуска • 2013
Страна • Канада, Испания
Жанр • триллер, детектив
Продолжительность • 01:30:51
Перевод • Одноголосый, закадровый Дмитрий Виноградов
Cубтитры • русские, английские
Оригинальная аудиодорожка • английский-Режиссёр • Дени Вильнёв
В ролях • Джейк Джилленхол, Мелани Лоран, Сара Гадон, Изабелла Росселлини и др.-Описание • Страдающий от депрессии учитель истории Адам Белл, берёт напрокат фильм, чтобы хоть как-то развлечься.
К своему удивлению, в фильме он находит актёра, который как две капли воды похож на самого Адама...-СубтитрыД. Виноградов
Релиз подготовилGater-
Качество: WEB-DL 720p
Формат: MKV
Видео: MPEG-4 AVC / 3994 kbps / 1280:532p / 23.976 fps / 2.40:1 / 0.245 bit/pixel / Main@L3.1
Аудио:
Русский / Dolby Digital 5.1 / 48 kHz / 384 kbps
English / Dolby Digital 5.1 / 48 kHz / 384 kbps
Субтитры:
Русский / English
-
-
Скриншоты
-
MediaInfo

General
Unique ID : 231437360815612778059954013515353720370 (0xAE1D36DF478AA995B9D737E277E08632)
Complete name : C:\Enemy.2013.WEB-DL 720p (Д. Виноградов).mkv
Format : Matroska
Format version : Version 2
File size : 3.08 GiB
Duration : 1h 30mn
Overall bit rate : 4 859 Kbps
Encoded date : UTC 2014-04-30 07:57:22
Writing application : mkvmerge v4.0.0 ('The Stars were mine') сборка от Jun 6 2010 16:18:42
Writing library : libebml v1.0.0 + libmatroska v1.0.0
Video
ID : 1
Format : AVC
Format/Info : Advanced Video Codec
Format profile : Main@L3.1
Format settings, CABAC : No
Format settings, ReFrames : 2 frames
Codec ID : V_MPEG4/ISO/AVC
Duration : 1h 30mn
Bit rate : 3 994 Kbps
Width : 1 280 pixels
Height : 532 pixels
Display aspect ratio : 2.40:1
Frame rate mode : Constant
Frame rate : 23.976 fps
Color space : YUV
Chroma subsampling : 4:2:0
Bit depth : 8 bits
Scan type : Progressive
Bits/(Pixel*Frame) : 0.245
Stream size : 2.53 GiB (82%)
Title : Enemy 2013
Language : English
Default : No
Forced : No
Color primaries : BT.709
Transfer characteristics : BT.709
Matrix coefficients : BT.709
Audio #1
ID : 2
Format : AC-3
Format/Info : Audio Coding 3
Mode extension : CM (complete main)
Format settings, Endianness : Big
Codec ID : A_AC3
Duration : 1h 30mn
Bit rate mode : Constant
Bit rate : 384 Kbps
Channel(s) : 6 channels
Channel positions : Front: L C R, Side: L R, LFE
Sampling rate : 48.0 KHz
Bit depth : 16 bits
Compression mode : Lossy
Stream size : 250 MiB (8%)
Title : DD 5.1 @ 384 - Д. Виноградов
Language : Russian
Default : Yes
Forced : No
Audio #2
ID : 3
Format : AC-3
Format/Info : Audio Coding 3
Mode extension : CM (complete main)
Format settings, Endianness : Big
Codec ID : A_AC3
Duration : 1h 30mn
Bit rate mode : Constant
Bit rate : 384 Kbps
Channel(s) : 6 channels
Channel positions : Front: L C R, Side: L R, LFE
Sampling rate : 48.0 KHz
Bit depth : 16 bits
Compression mode : Lossy
Stream size : 250 MiB (8%)
Title : DD 5.1 @ 384 - Original
Language : English
Default : No
Forced : No
Text #1
ID : 4
Format : UTF-8
Codec ID : S_TEXT/UTF8
Codec ID/Info : UTF-8 Plain Text
Title : SRT - Д. Виноградов
Language : Russian
Default : No
Forced : No
Text #2
ID : 5
Format : UTF-8
Codec ID : S_TEXT/UTF8
Codec ID/Info : UTF-8 Plain Text
Title : SRT - Original
Language : English
Default : No
Forced : No
Menu
00:00:00.000 : en:Chapter 1
00:04:57.000 : en:Chapter 2
00:09:19.000 : en:Chapter 3
00:15:45.000 : en:Chapter 4
00:22:25.000 : en:Chapter 5
00:26:24.000 : en:Chapter 6
00:30:57.000 : en:Chapter 7
00:35:43.000 : en:Chapter 8
00:37:34.000 : en:Chapter 9
00:42:11.000 : en:Chapter 10
00:48:55.000 : en:Chapter 11
00:52:50.000 : en:Chapter 12
00:55:15.000 : en:Chapter 13
00:59:19.000 : en:Chapter 14
01:02:25.000 : en:Chapter 15
01:06:32.000 : en:Chapter 16
01:10:08.000 : en:Chapter 17
01:15:10.000 : en:Chapter 18
01:20:39.000 : en:Chapter 19
01:23:16.000 : en:Chapter 20
Скачать

Скачать торрент!

Как скачивать? · Что такое торрент? · Рейтинг и ограничения

Сайт не распространяет и не хранит электронные версии произведений, а лишь предоставляет доступ к создаваемому пользователями каталогу ссылок на торрент-файлы, которые содержат только списки хеш-сумм

[Профиль] [ЛС]
Показать сообщения:    
Ответить на тему

Текущее время: Сегодня 05:10

Часовой пояс: GMT + 4



Вы не можете начинать темы
Вы не можете отвечать на сообщения
Вы не можете редактировать свои сообщения
Вы не можете удалять свои сообщения
Вы не можете голосовать в опросах
Вы не можете прикреплять файлы к сообщениям
Вы не можете скачивать файлы