Спасти мистера Бэнкса / Saving Mr. Banks (Джон Ли Хэнкок / John Lee Hancock) [2013, США, Великобритания, Австралия, драма, история, биография, BDRip 1080p] Dub + Original Eng + Sub Rus, Ukr, Eng

Ответить на тему
 
Автор Сообщение

user ®

Стаж: 7 лет 7 месяцев

Сообщений: 20008

Пост Пост: #1 от 02-Май-2014 22:20

[Цитировать]

Спасти мистера Бэнкса / Saving Mr. Banks- Год выпуска: 2013
Страна: США, Великобритания, Австралия
Жанр: драма, история, биография
Продолжительность: 02:05:40
Перевод: Профессиональный (полное дублирование)
Оригинальная звуковая дорожка: English
Субтитры: Russian (Forced, iTunes), Russian (iTunes), Ukrainian (Forced, iTunes), Ukrainian (iTunes), English (SDH), English (SDH-COLORED)-Режиссер: Джон Ли Хэнкок / John Lee Hancock
В ролях: Эмма Томпсон, Том Хэнкс, Пол Джаматти, Джейсон Шварцман, Колин Фаррелл, Энни Роуз Бакли, Рут Уилсон, Брэдли Уитфорд, Б.Дж. Новак, Лили Бигхем
О фильме: История постановки классического художественного фильма Disney «Мэри Поппинс».
Когда Уолт Дисней пообещал своим дочерям снять фильм по их любимой книге, сказке Памелы Трэверс «Мэри Поппинс», он даже не подозревал, что на исполнение этого обещания ему понадобится более двадцати лет. В попытке получить права на экранизацию книги, Уолт столкнулся со своенравной и несговорчивой британской писательницей, которая ни в коем случае не хотела, чтобы ее любимая героиня была «испорчена» голливудским подходом к созданию фильмов. Лишь в начале шестидесятых она согласилась лично приехать в Лос-Анджелес и начать переговоры об экранизации.
На протяжении двух недель в 1961 году, пока длились переговоры с Памелой Трэверс, Уолт Дисней перепробовал все уловки. Он презентовал идеи и эскизы к фильму, пытался впечатлить писательницу великолепной музыкой, написанной талантливыми композиторами, братьями Шерман, и даже устраивал экскурсии в Диснейленд - однако Трэверс не шла ни на какие уговоры, и знаменитый кинематографист чуть было не отказался от своего замысла.-За исходный релиз большое спасибо by Dreamcatcher
Формат: MKV
Видео: 1920x800 at 23.976 fps, x264@L4.1, ~20.7 Mbps avg
Аудио #1: Russian: 48 kHz, AC3, 3/2 (L,C,R,l,r) + LFE ch, ~640.00 kbps avg |Дубляж, Blu-ray CEE|
Аудио #2: English: 48 kHz, DTS, 3/2 (L,C,R,l,r) + LFE ch, ~1536.00 kbps avg
Семпл-

Source | Filtered | NTb
-
mInfo
Формат : Matroska
Версия формата : Version 4 / Version 2
Размер файла : 20,4 Гбайт
Продолжительность : 2 ч. 5 м.
Общий поток : 23,3 Мбит/сек
Название фильма : Saving Mr. Banks (2013) - Release for HDCLUB
Дата кодирования : UTC 2014-04-30 17:34:44
Программа кодирования : mkvmerge v6.1.0 ('Old Devil') built on Mar 2 2013 14:32:37
Библиотека кодирования : libebml v1.3.0 + libmatroska v1.4.0
Видео
Идентификатор : 1
Формат : AVC
Формат/Информация : Advanced Video Codec
Профиль формата : High@L4.1
Параметр CABAC формата : Да
Параметр ReFrames формата : 5 кадров
Идентификатор кодека : V_MPEG4/ISO/AVC
Продолжительность : 2 ч. 5 м.
Битрейт : 20,6 Мбит/сек
Ширина : 1920 пикселей
Высота : 800 пикселей
Соотношение сторон : 2,40:1
Режим частоты кадров : Постоянный
Частота кадров : 23,976 кадра/сек
Цветовое пространство : YUV
Субдискретизация насыщенности : 4:2:0
Битовая глубина : 8 бит
Тип развёртки : Прогрессивная
Бит/(Пиксели*Кадры) : 0.561
Размер потока : 18,1 Гбайт (89%)
Заголовок : Saving Mr. Banks (2013) - Release for HDCLUB
Библиотека кодирования : x264 core 142 r2389kMod 956c8d8
Настройки программы : cabac=1 / ref=5 / deblock=1:-3:-3 / analyse=0x3:0x133 / me=umh / subme=10 / psy=1 / fade_compensate=0.00 / psy_rd=1.04:0.00 / mixed_ref=1 / me_range=48 / chroma_me=1 / trellis=2 / 8x8dct=1 / cqm=0 / deadzone=21,11 / fast_pskip=1 / chroma_qp_offset=-2 / threads=16 / lookahead_threads=2 / sliced_threads=0 / nr=0 / decimate=1 / interlaced=0 / bluray_compat=0 / constrained_intra=0 / fgo=0 / bframes=9 / b_pyramid=2 / b_adapt=2 / b_bias=0 / direct=3 / weightb=1 / open_gop=0 / weightp=2 / keyint=250 / keyint_min=23 / scenecut=40 / intra_refresh=0 / rc_lookahead=200 / rc=crf / mbtree=0 / crf=18.6000 / qcomp=0.80 / qpmin=0 / qpmax=69 / qpstep=4 / vbv_maxrate=50000 / vbv_bufsize=62500 / crf_max=0.0 / nal_hrd=none / filler=0 / ip_ratio=1.20 / pb_ratio=1.10 / aq=1:0.70 / zones=579,650,b=1.2/2223,2908,b=1.5/3246,3513,b=1.2/3545,3671,b=1.2/3751,3873,b=1.2/3955,4142,b=1.2/4217,4382,b=1.2/4440,4646,b=1.2/4663,4735,b=1.2/4813,5007,b=1.2/5215,5299,b=1.2/5398,5453,b=1.2/5507,5561,b=1.2/5614,5700,b=1.2/5724,5746,b=1.2/5836,5911,b=1.2/6030,6070,b=1.2/6119,6168,b=1.2/6293,7357,b=1.2/8835,9103,b=1.2/9183,9408,b=1.2/9659,10097,b=1.2/10153,10288,b=1.2/10434,10566,b=1.2/10618,10947,b=1.2/11015,11200,b=1.2/11318,11689,b=1.2/11765,11808,b=1.2/11952,12309,b=1.2/12477,12597,b=1.2/12781,12809,b=1.2/12967,12981,b=1.2/13057,13191,b=1.2/13270,13311,b=1.2/13606,13717,b=1.2/14119,14275,b=1.2/14331,14451,b=1.2/15083,15296,b=1.2/15302,15336,b=1.2/15344,15663,b=1.2/15715,15998,b=1.2/16101,16551,b=1.2/16660,16760,b=1.2/16847,17683,b=1.2/17855,17860,b=1.2/18019,18508,b=1.2/20083,20186,b=1.2/21374,21405,b=1.2/23697,23878,b=1.2/23952,24161,b=1.2/24206,25592,b=1.2/25609,25758,b=1.2/26092,26165,b=1.2/26217,26234,b=1.2/29520,29585,b=1.2/29633,29701,b=1.2/29810,29890,b=1.2/29926,30018,b=1.2/30089,30214,b=1.2/30220,30337,b=1.2/30568,30646,b=1.2/30695,30766,b=1.2/30948,31652,b=1.2/31727,32102,b=1.2/32401,32589,b=1.2/32643,32722,b=1.2/32791,32904,b=1.2/32969,33039,b=1.2/33110,33170,b=1.2/33303,33350,b=1.2/33559,33647,b=1.2/33888,34100,b=1.2/34145,34455,b=1.2/34551,35189,b=1.2/35196,36194,b=1.2/36327,36480,b=1.2/36528,36568,b=1.2/36628,36697,b=1.2/36737,37236,b=1.2/37577,37701,b=1.2/37735,37946,b=1.2/38561,38737,b=1.2/38805,38837,b=1.2/41597,41787,b=1.2/41919,41968,b=1.2/42147,42162,b=1.2/42267,42301,b=1.2/42442,42496,b=1.2/42718,42867,b=1.2/45639,46120,b=1.2/46352,46440,b=1.2/46495,46662,b=1.2/49643,49699,b=1.2/50015,50043,b=1.2/50110,50146,b=1.2/50192,50232,b=1.2/51244,51566,b=1.2/51577,51606,b=1.2/51707,51758,b=1.2/51977,52059,b=1.2/52085,52349,b=1.2/52414,52844,b=1.2/52932,53271,b=1.2/53328,53420,b=1.2/54382,54465,b=1.2/54659,55063,b=1.2/55148,55196,b=1.2/55575,55633,b=1.2/55689,55801,b=1.2/55841,55966,b=1.2/56510,56924,b=1.2/58946,59204,b=1.2/59392,60731,b=1.2/63704,64990,b=1.2/65042,65100,b=1.2/65211,65280,b=1.2/65309,65351,b=1.2/65582,65662,b=1.2/71323,71377,b=1.2/71543,71661,b=1.2/71777,72629,b=1.2/72814,72899,b=1.2/73116,73170,b=1.2/73717,73824,b=1.2/74099,74239,b=1.5/74519,78417,b=1.5/78512,79082,b=1.5/79179,80715,b=1.5/80787,82115,b=1.2/82676,82766,b=1.2/84452,84549,b=1.2/85299,85409,b=1.2/85964,86084,b=1.2/86591,86651,b=1.2/88625,88673,b=1.2/88699,88732,b=1.2/89225,89405,b=1.2/90448,90494,b=1.2/91960,92009,b=1.2/92352,92384,b=1.2/92423,92463,b=1.2/92641,92689,b=1.2/92904,92958,b=1.2/93349,93388,b=1.2/93501,93575,b=1.2/93645,93736,b=1.2/93769,93839,b=1.2/94221,94298,b=1.2/94443,94543,b=1.2/95052,95120,b=1.2/95290,95392,b=1.2/96944,97729,b=1.2/97954,98003,b=1.2/98177,98216,b=1.2/98492,98661,b=1.2/98811,98850,b=1.2/98915,99006,b=1.2/99099,99184,b=1.2/99282,99404,b=1.2/99455,99607,b=1.5/101310,101384,b=1.5/101438,101529,b=1.5/101597,101639,b=1.5/101703,101766,b=1.2/104697,108950,b=1.2/109879,109971,b=1.2/110020,110057,b=1.2/110658,110774,b=1.2/110875,110914,b=1.2/110968,111017,b=1.2/111131,111870,b=1.2/111890,112303,b=1.2/112383,112836,b=1.2/112862,114031,b=1.2/114069,114137,b=1.2/114512,114582,b=1.2/115009,115196,b=1.2/116059,116262,b=1.2/117910,118040,b=1.2/118377,118459,b=1.2/118542,118684,b=1.2/118764,118814,b=1.2/118924,118957,b=1.2/119036,119066,b=1.2/119384,119470,b=1.2/119513,119576,b=1.2/119725,119800,b=1.2/119901,119962,b=1.2/119970,120140,b=1.2/120185,120240,b=1.2/120724,120776,b=1.2/120784,120973,b=1.2/121227,121601,b=1.2/121681,121807,b=1.2/121884,121934,b=1.2/122050,122122,b=1.2/122179,122296,b=1.2/123176,123263,b=1.2/123347,123462,b=1.2/123692,123727,b=1.2/123789,123818,b=1.2/123979,124091,b=1.2/124101,124132,b=1.2/124454,124486,b=1.2/124806,124868,b=1.2/124893,125037,b=1.2/125143,125184,b=1.2/125275,125299,b=1.2/125448,125458,b=1.2/125625,125668,b=1.2/127578,127674,b=1.2/127868,127997,b=1.2/128135,128822,b=1.2/129267,129621,b=1.2/130003,130086,b=1.2/130137,130167,b=1.2/130271,130294,b=1.2/130313,130342,b=1.2/130397,130457,b=1.2/130552,130587,b=1.2/130677,130820,b=1.5/131187,131517,b=1.5/131791,131929,b=1.5/132179,132746,b=1.5/132788,132846,b=1.5/132920,132972,b=1.2/134562,134581,b=1.2/134602,134617,b=1.2/134791,134815,b=1.2/134998,135057,b=1.2/135365,135458,b=1.2/136022,136046,b=1.2/136087,136136,b=1.2/136290,136326,b=1.2/136678,136747,b=1.2/137203,137312,b=1.2/138286,138347,b=1.2/138415,138502,b=1.2/138606,138710,b=1.2/138737,138812,b=1.2/138863,139178,b=1.2/139292,140416,b=1.2/141256,141834,b=1.2/141904,142284,b=1.2/142400,142531,b=1.2/142684,142753,b=1.2/143159,143295,b=1.2/143453,143592,b=1.2/143719,144794,b=1.5/144884,153896,b=1.2/153897,154442,b=1.2/154527,154708,b=1.2/155702,155907,b=1.2/156489,156566,b=1.2/157789,157905,b=1.2/158154,158214,b=1.2/158253,158262,b=1.2/158412,158501,b=1.2/159148,159252,b=1.2/159411,159530,b=1.2/159733,159804,b=1.2/159817,159982,b=1.2/160111,160630,b=1.2/160826,160940,b=1.5/161159,163167,b=1.5/163503,166156,b=1.5/166309,167001,b=1.5/167128,167320,b=1.5/167413,168728,b=1.5/169033,169226,b=1.5/169543,169646,b=1.2/170815,170823,b=1.2
Язык : English
Default : Да
Forced : Нет
Аудио #1
Идентификатор : 2
Формат : AC-3
Формат/Информация : Audio Coding 3
Расширение режима : CM (complete main)
Параметр Endianness формата : Big
Идентификатор кодека : A_AC3
Продолжительность : 2 ч. 5 м.
Вид битрейта : Постоянный
Битрейт : 640 Кбит/сек
Каналы : 6 каналов
Расположение каналов : Front: L C R, Side: L R, LFE
Частота : 48,0 КГц
Битовая глубина : 16 бит
Метод сжатия : С потерями
Размер потока : 575 Мбайт (3%)
Заголовок : AC3 5.1 @ 640 kbps - DUB, Blu-ray CEE
Язык : Russian
Default : Да
Forced : Нет
Аудио #2
Идентификатор : 3
Формат : DTS
Формат/Информация : Digital Theater Systems
Режим : 16
Параметр Endianness формата : Big
Идентификатор кодека : A_DTS
Продолжительность : 2 ч. 5 м.
Вид битрейта : Постоянный
Битрейт : 1509 Кбит/сек
Каналы : 6 каналов
Расположение каналов : Front: L C R, Side: L R, LFE
Частота : 48,0 КГц
Битовая глубина : 24 бит
Метод сжатия : С потерями
Размер потока : 1,32 Гбайт (6%)
Заголовок : DTS 5.1 @ 1536 kbps
Язык : English
Default : Нет
Forced : Нет
Текст #1
Идентификатор : 4
Формат : UTF-8
Идентификатор кодека : S_TEXT/UTF8
Идентификатор кодека/Информация : UTF-8 Plain Text
Заголовок : Forced
Язык : Russian
Default : Да
Forced : Нет
Текст #2
Идентификатор : 5
Формат : UTF-8
Идентификатор кодека : S_TEXT/UTF8
Идентификатор кодека/Информация : UTF-8 Plain Text
Заголовок : iTunes
Язык : Russian
Default : Нет
Forced : Нет
Текст #3
Идентификатор : 6
Формат : UTF-8
Идентификатор кодека : S_TEXT/UTF8
Идентификатор кодека/Информация : UTF-8 Plain Text
Заголовок : Forced
Язык : Ukrainian
Default : Нет
Forced : Нет
Текст #4
Идентификатор : 7
Формат : UTF-8
Идентификатор кодека : S_TEXT/UTF8
Идентификатор кодека/Информация : UTF-8 Plain Text
Заголовок : iTunes
Язык : Ukrainian
Default : Нет
Forced : Нет
Текст #5
Идентификатор : 8
Формат : UTF-8
Идентификатор кодека : S_TEXT/UTF8
Идентификатор кодека/Информация : UTF-8 Plain Text
Заголовок : SDH
Язык : English
Default : Нет
Forced : Нет
Текст #6
Идентификатор : 9
Формат : UTF-8
Идентификатор кодека : S_TEXT/UTF8
Идентификатор кодека/Информация : UTF-8 Plain Text
Заголовок : SDH-COLORED
Язык : English
Default : Нет
Forced : Нет
Меню
00:00:00.000 : en:I Will Not Go
00:06:41.401 : en:The Winds Bring Change
00:10:11.194 : en:Our New Home
00:16:28.404 : en:Welcome Aboard
00:26:07.274 : en:And It Begins…
00:29:33.981 : en:Do You Trust Me?
00:32:43.170 : en:Everything Is Wrong!
00:35:58.782 : en:A Fuzzy Future
00:40:19.292 : en:Try And Catch Her
00:45:10.666 : en:“A Spoonful Of Sugar”
00:48:48.926 : en:Do It For Your Daughter
00:53:28.205 : en:A Turning Point
00:57:06.423 : en:You Don’t Understand
01:07:23.373 : en:The Simplicity Of Life
01:12:46.737 : en:Mother Is Leaving
01:15:47.752 : en:Help Is On The Way
01:19:05.908 : en:The Happiest Place On Earth
01:24:02.496 : en:Let’s Go Fly A Kite
01:28:41.066 : en:The Illness
01:32:49.814 : en:A Simple Belief
01:38:12.178 : en:My Own Banks
01:47:33.572 : en:Surprise Invite
01:53:46.486 : en:The Real Mary Poppins
01:58:44.909 : en:End Credits

-
Цитата:
* Сохранены и подписаны оригинальные чаптеры как на Blu-ray.
* Исходный WEB-DL куплен в рамках сервиса "Копилка".
* Source has banding in certain scenes. ThX to BoDoi for identifying. This rip fixes some dirty lines as well that appeared in ~500 frames...
Скачать

Скачать торрент!

Как скачивать? · Что такое торрент? · Рейтинг и ограничения

Сайт не распространяет и не хранит электронные версии произведений, а лишь предоставляет доступ к создаваемому пользователями каталогу ссылок на торрент-файлы, которые содержат только списки хеш-сумм

[Профиль] [ЛС]
Показать сообщения:    
Ответить на тему

Текущее время: Сегодня 00:10

Часовой пояс: GMT + 4



Вы не можете начинать темы
Вы не можете отвечать на сообщения
Вы не можете редактировать свои сообщения
Вы не можете удалять свои сообщения
Вы не можете голосовать в опросах
Вы не можете прикреплять файлы к сообщениям
Вы не можете скачивать файлы