Забойный реванш / Grudge Match (Питер Сигал / Peter Segal) [2013, США, комедия, спорт, BDRip 1080p] Dub + AVO Goblin + Ukr Dub + Original Eng + Sub Rus, Ukr, Eng

Ответить на тему
 
Автор Сообщение

user ®

Стаж: 7 лет 7 месяцев

Сообщений: 20008

Пост Пост: #1 от 02-Май-2014 22:20

[Цитировать]

Забойный реванш / Grudge Match- Страна: США
Жанр: комедия, спорт
Год выпуска: 2013
Продолжительность: 01:53:17
Перевод: Профессиональный (дублированный)
Cубтитры: русские, украинские, английские
Оригинальная аудиодорожка: английский-Режиссер: Питер Сигал / Peter Segal
В ролях: Роберт Де Ниро (Billy «The Kid» McDonnen), Сильвестр Сталлоне (Henry «Razor» Sharp), Алан Аркин (Louis «Lightning» Conlon), Ким Бейсингер (Sally), Кевин Харт (Dante Slate, Jr.), Джон Бернтал (B.J.), Кемден Грэй (Trey), Пол Бен-Виктор (Lou Camare), ЭлЭл Кул Джей (Frankie Brite), Энтони Андерсон (Mr. Sandpaper Hands), Джим Лэмпли (играет самого себя), Рич Литтл (Boxing Announcer).
Описание: Сюжет фильма рассказывает о двух боксерах, которые благодаря своим победам стали настоящими легендами профессионального спорта. Они всегда были непримиримыми соперниками, которые просто ненавидели друг друга. Однако провести решающий бой между собой они так и не смогли. С того времени прошло тридцать лет, и теперь у них появилась возможность выйти на ринг, чтобы выяснить, кто же из них является лучшим. Конечно же их физическая форма оставляет желать лучшего и вернуть себе былую функциональную подготовку они просто не в состоянии, но каждый из них приступает к тяжелым тренировкам, в надежде подготовится к бою лучше соперника. Впереди их ждет бой, который наконец-то поможет определить, кто же из них сильнее...-Качество: BDRip 1080p | Контейнер: MKV | Sample
Видео: 1920x1080 (16:9), 23.976 fps, x264@L4.1 ~16600 kbps avg
Аудио 1: Russian 48 kHz, AC3, 3/2 (L,C,R,l,r) + LFE ch, 448.00 kbps avg | BD CEE
Аудио 2: Russian 48 kHz, AC3, 3/2 (L,C,R,l,r) + LFE ch, 448.00 kbps avg | AVO Goblin BD CEE
Аудио 3: Ukrainian 48 kHz, AC3, 2/0 (L,R) ch, 192.00 kbps avg | Dub
Аудио 4: English 48 kHz, DTS, 3/2 (L,C,R,l,r) + LFE ch, 1509.00 kbps avg | Original

Скриншоты Медиаинфо
Общее
Формат : Matroska
Версия формата : Version 4 / Version 2
Размер файла : 15,2 Гбайт
Продолжительность : 1 ч. 53 м.
Общий поток : 19,2 Мбит/сек
Название фильма : Grudge Match 2013
Дата кодирования : UTC 2014-05-01 15:09:16
Программа кодирования : mkvmerge v6.1.0 ('Old Devil') built on Mar 4 2013 09:10:42
Библиотека кодирования : libebml v1.3.0 + libmatroska v1.4.0
Видео
Идентификатор : 1
Формат : AVC
Формат/Информация : Advanced Video Codec
Профиль формата : High@L4.1
Параметр CABAC формата : Да
Параметр ReFrames формата : 4 кадра
Идентификатор кодека : V_MPEG4/ISO/AVC
Продолжительность : 1 ч. 53 м.
Битрейт : 16,6 Мбит/сек
Ширина : 1920 пикселей
Высота : 1080 пикселей
Соотношение сторон : 16:9
Режим частоты кадров : Постоянный
Частота кадров : 23,976 кадра/сек
Цветовое пространство : YUV
Субдискретизация насыщенности : 4:2:0
Битовая глубина : 8 бит
Тип развёртки : Прогрессивная
Бит/(Пиксели*Кадры) : 0.334
Размер потока : 12,8 Гбайт (84%)
Заголовок : BDRip 1080p
Библиотека кодирования : x264 core 142 r2409+42 04be48a tMod [8-bit@4:2:0 X86_64]
Настройки программы : cabac=1 / ref=4 / deblock=1:-3:-2 / analyse=0x3:0x113 / me=umh / subme=11 / psy=1 / fade_compensate=0.00 / psy_rd=1.00:0.00 / mixed_ref=1 / me_range=48 / chroma_me=1 / trellis=2 / 8x8dct=1 / cqm=0 / deadzone=21,11 / fast_pskip=0 / chroma_qp_offset=-2 / threads=18 / lookahead_threads=3 / sliced_threads=0 / nr=0 / decimate=0 / interlaced=0 / bluray_compat=0 / constrained_intra=0 / fgo=0 / bframes=8 / b_pyramid=2 / b_adapt=2 / b_bias=0 / direct=3 / weightb=1 / open_gop=0 / weightp=2 / keyint=240 / keyint_min=24 / scenecut=40 / intra_refresh=0 / rc=2pass / mbtree=0 / bitrate=16600 / ratetol=1.0 / qcomp=0.70 / qpmin=0:0:0 / qpmax=69:69:69 / qpstep=4 / cplxblur=20.0 / qblur=0.5 / ip_ratio=1.20 / pb_ratio=1.20 / aq=4:0.85 / aq-sensitivity=10.00 / aq-factor=1.00:1.00:1.00 / aq2=0 / aq3=0
Язык : English
Default : Да
Forced : Нет
Аудио #1
Идентификатор : 2
Формат : AC-3
Формат/Информация : Audio Coding 3
Расширение режима : CM (complete main)
Параметр Endianness формата : Big
Идентификатор кодека : A_AC3
Продолжительность : 1 ч. 53 м.
Вид битрейта : Постоянный
Битрейт : 448 Кбит/сек
Каналы : 6 каналов
Расположение каналов : Front: L C R, Side: L R, LFE
Частота : 48,0 КГц
Битовая глубина : 16 бит
Метод сжатия : С потерями
Размер потока : 363 Мбайт (2%)
Заголовок : BD CEE
Язык : Russian
Default : Да
Forced : Нет
Аудио #2
Идентификатор : 3
Формат : AC-3
Формат/Информация : Audio Coding 3
Расширение режима : CM (complete main)
Параметр Endianness формата : Big
Идентификатор кодека : A_AC3
Продолжительность : 1 ч. 53 м.
Вид битрейта : Постоянный
Битрейт : 448 Кбит/сек
Каналы : 6 каналов
Расположение каналов : Front: L C R, Side: L R, LFE
Частота : 48,0 КГц
Битовая глубина : 16 бит
Метод сжатия : С потерями
Размер потока : 363 Мбайт (2%)
Заголовок : AVO Д. Пучков aka Гоблин BD CEE
Язык : Russian
Default : Нет
Forced : Нет
Аудио #3
Идентификатор : 4
Формат : AC-3
Формат/Информация : Audio Coding 3
Расширение режима : CM (complete main)
Параметр Endianness формата : Big
Идентификатор кодека : A_AC3
Продолжительность : 1 ч. 53 м.
Вид битрейта : Постоянный
Битрейт : 192 Кбит/сек
Каналы : 2 канала
Расположение каналов : Front: L R
Частота : 48,0 КГц
Битовая глубина : 16 бит
Метод сжатия : С потерями
Размер потока : 156 Мбайт (1%)
Заголовок : Dub
Язык : Ukrainian
Default : Нет
Forced : Нет
Аудио #4
Идентификатор : 5
Формат : DTS
Формат/Информация : Digital Theater Systems
Режим : 16
Параметр Endianness формата : Big
Идентификатор кодека : A_DTS
Продолжительность : 1 ч. 53 м.
Вид битрейта : Постоянный
Битрейт : 1509 Кбит/сек
Каналы : 6 каналов
Расположение каналов : Front: L C R, Side: L R, LFE
Частота : 48,0 КГц
Битовая глубина : 24 бит
Метод сжатия : С потерями
Размер потока : 1,19 Гбайт (8%)
Заголовок : Original
Язык : English
Default : Нет
Forced : Нет
Текст #1
Идентификатор : 6
Формат : UTF-8
Идентификатор кодека : S_TEXT/UTF8
Идентификатор кодека/Информация : UTF-8 Plain Text
Заголовок : Forced
Язык : Russian
Default : Да
Forced : Нет
Текст #2
Идентификатор : 7
Формат : UTF-8
Идентификатор кодека : S_TEXT/UTF8
Идентификатор кодека/Информация : UTF-8 Plain Text
Заголовок : Full
Язык : Russian
Default : Нет
Forced : Нет
Текст #3
Идентификатор : 8
Формат : UTF-8
Идентификатор кодека : S_TEXT/UTF8
Идентификатор кодека/Информация : UTF-8 Plain Text
Заголовок : Forced
Язык : Ukrainian
Default : Нет
Forced : Нет
Текст #4
Идентификатор : 9
Формат : UTF-8
Идентификатор кодека : S_TEXT/UTF8
Идентификатор кодека/Информация : UTF-8 Plain Text
Заголовок : Full
Язык : Ukrainian
Default : Нет
Forced : Нет
Текст #5
Идентификатор : 10
Формат : UTF-8
Идентификатор кодека : S_TEXT/UTF8
Идентификатор кодека/Информация : UTF-8 Plain Text
Заголовок : Full
Язык : English
Default : Нет
Forced : Нет
Текст #6
Идентификатор : 11
Формат : UTF-8
Идентификатор кодека : S_TEXT/UTF8
Идентификатор кодека/Информация : UTF-8 Plain Text
Заголовок : Full SDH
Язык : English
Default : Нет
Forced : Нет
Меню
00:00:00.000 : en:Chapter 1
00:10:07.229 : en:Chapter 2
00:19:20.783 : en:Chapter 3
00:29:24.970 : en:Chapter 4
00:39:11.849 : en:Chapter 5
00:50:06.002 : en:Chapter 6
00:59:09.336 : en:Chapter 7
01:09:21.738 : en:Chapter 8
01:20:02.463 : en:Chapter 9
01:29:20.603 : en:Chapter 10
01:39:52.778 : en:Chapter 11
01:45:15.933 : en:Chapter 12
Скачать

Скачать торрент!

Как скачивать? · Что такое торрент? · Рейтинг и ограничения

Сайт не распространяет и не хранит электронные версии произведений, а лишь предоставляет доступ к создаваемому пользователями каталогу ссылок на торрент-файлы, которые содержат только списки хеш-сумм

[Профиль] [ЛС]
Показать сообщения:    
Ответить на тему

Текущее время: Сегодня 18:28

Часовой пояс: GMT + 4



Вы не можете начинать темы
Вы не можете отвечать на сообщения
Вы не можете редактировать свои сообщения
Вы не можете удалять свои сообщения
Вы не можете голосовать в опросах
Вы не можете прикреплять файлы к сообщениям
Вы не можете скачивать файлы