Трудно Быть Богом (Алексей Герман) [2014, Фантастика, Драма, WEB-DLRip]

Ответить на тему
 
Автор Сообщение

user ®

Стаж: 7 лет 7 месяцев

Сообщений: 20008

Пост Пост: #1 от 02-Май-2014 22:20

[Цитировать]

Трудно Быть Богом
Жанр: Фантастика, Драма
Год выпуска: 2014
Продолжительность: 02:57:09
Режиссёр: Алексей Герман
В ролях: Леонид Ярмольник, Юрий Цурило, Наталья Мотева, Александр Чутко, Евгений Герчаков, Александр Ильин, Пётр Меркурьев, Олег Ботин, Константин Быков, Юрий Думчев
Описание: На планете, погружённой в глухое Средневековье, работают наблюдатели-земляне, которые пытаются бережно подправлять ход событий, не нарушая логическое развитие истории. Главный герой, дон Румата Эсторский, осознавая свою задачу сохранения нейтралитета, тем не менее, не выдерживает, когда в Арканаре (одном из городов планеты) захватывает власть «чёрное братство», свергнувшее господство «серых», столь же отвратительных, но не столь кровавых. Румата берётся за меч, чтобы покарать злодеев, и тем самым нарушает все правила и закономерности, вмешиваясь в чужой исторический процесс.
Доп. информация:
Фильм По Повести Аркадия и Бориса Стругацких "Трудно Быть Богом".
Сэмпл: http://multi-up.com/971102
Качество видео: WEB-DLRip [Рип с WEBDL 720p]
Формат видео: AVI
Видео: XviD, 720х400 (16:9), 24,000 кадра/сек, 1267 Кбит/сек
Аудио: AC-3, 48,0 КГц, 384 Кбит/сек (6 каналов)
MediaInfo
Формат : AVI
Формат/Информация : Audio Video Interleave
Размер файла : 2,05 Гбайт
Продолжительность : 2 ч. 57 м.
Общий поток : 1660 Кбит/сек
Программа кодирования : VirtualDubMod 1.5.10.2 (build 2540/release)
Библиотека кодирования : VirtualDubMod build 2540/release
Видео
Идентификатор : 0
Формат : MPEG-4 Visual
Профиль формата : Advanced Simple@L5
Параметр BVOP формата : 2
Параметр QPel формата : Нет
Параметр GMC формата : Без точки перехода
Параметр матрицы формата : Выборочная
Идентификатор кодека : XVID
Идентификатор кодека/Подсказка : XviD
Продолжительность : 2 ч. 57 м.
Битрейт : 1267 Кбит/сек
Ширина : 720 пикселей
Высота : 400 пикселей
Соотношение сторон : 16:9
Частота кадров : 24,000 кадра/сек
Цветовое пространство : YUV
Субдискретизация насыщенности : 4:2:0
Битовая глубина : 8 бит
Тип развёртки : Прогрессивная
Метод сжатия : С потерями
Бит/(Пиксели*Кадры) : 0.183
Размер потока : 1,57 Гбайт (76%)
Библиотека кодирования : XviD 1.2.1 (UTC 2008-12-04)
Аудио
Идентификатор : 1
Формат : AC-3
Формат/Информация : Audio Coding 3
Расширение режима : CM (complete main)
Параметр Endianness формата : Big
Идентификатор кодека : 2000
Продолжительность : 2 ч. 57 м.
Вид битрейта : Постоянный
Битрейт : 384 Кбит/сек
Каналы : 6 каналов
Расположение каналов : Front: L C R, Side: L R, LFE
Частота : 48,0 КГц
Битовая глубина : 16 бит
Метод сжатия : С потерями
Размер потока : 487 Мбайт (23%)
Выравнивание : Разделение по промежуткам
Продолжительность промежутка : 42 мс. (1,00 видеокадр)
Время предзагрузки промежутка : 500 мс.
Скриншот c названием фильма Скриншоты
Скачать

Скачать торрент!

Как скачивать? · Что такое торрент? · Рейтинг и ограничения

Сайт не распространяет и не хранит электронные версии произведений, а лишь предоставляет доступ к создаваемому пользователями каталогу ссылок на торрент-файлы, которые содержат только списки хеш-сумм

[Профиль] [ЛС]
Показать сообщения:    
Ответить на тему

Текущее время: Сегодня 18:22

Часовой пояс: GMT + 4



Вы не можете начинать темы
Вы не можете отвечать на сообщения
Вы не можете редактировать свои сообщения
Вы не можете удалять свои сообщения
Вы не можете голосовать в опросах
Вы не можете прикреплять файлы к сообщениям
Вы не можете скачивать файлы