Карнавал по-нашему, Серия 1- из 2 (Леонид Мазор) [2014, комедия, музыкальный фильм, SATRip]

Ответить на тему
 
Автор Сообщение

user ®

Стаж: 7 лет 7 месяцев

Сообщений: 20008

Пост Пост: #1 от 02-Май-2014 19:10

[Цитировать]

Карнавал по-нашему
Жанр: комедия, музыкальный фильм
Год выпуска: 2014
Продолжительность: 00:43:17 + 00:42:52
Режиссёр: Леонид Мазор
В ролях: Александр Асташёнок, Татьяна Рыбинец, Валерий Афанасьев, Ирина Бякова, Анатолий Калмыков
Описание: История о молодом человеке, живущем в городском мире, со своими законами и увлечениями. Эти «увлечения» приводят героя к ситуации, когда жизнь становится дороже любых приключений. Случайная встреча с простой сельской девушкой в корне меняет всю его жизнь.
Главную роль в ленте играет Александр Асташенок - российский музыкант, актер, бывший солист группы "Корни" и победитель первой "Фабрики Звезд".
Сэмпл: http://yadi.sk/d/FvLij-7PNsWaR
Качество видео: SATRip
Формат видео: AVI
Видео: XviD, 704x368, 25.00fps, 2060 Кбит/сек, 0.269 bit/pixel
Аудио: MP3, 48000 Hz, stereo, 192 Кбит/сек
MediaInfo
Общее
Полное имя : Y:\Сериалы 2014\Фильмы\Карнавал по-нашему (2014)\Карнавал по-нашему.(01.seriya).2014.XviD.SATRip.by.simka.avi
Формат : AVI
Формат/Информация : Audio Video Interleave
Размер файла : 700 Мбайт
Продолжительность : 43 м.
Общий поток : 2262 Кбит/сек
Программа кодирования : VirtualDubMod 1.5.10.3 | www.virtualdub-fr.org || (build 2550/release)
Библиотека кодирования : VirtualDubMod build 2550/release
Видео
Идентификатор : 0
Формат : MPEG-4 Visual
Профиль формата : Advanced Simple@L5
Параметр BVOP формата : 1
Параметр QPel формата : Нет
Параметр GMC формата : Без точки перехода
Параметр матрицы формата : Default (MPEG)
Идентификатор кодека : XVID
Идентификатор кодека/Подсказка : XviD
Продолжительность : 43 м.
Битрейт : 2060 Кбит/сек
Ширина : 704 пикселя
Высота : 368 пикселей
Соотношение сторон : 1,913
Частота кадров : 25,000 кадров/сек
Цветовое пространство : YUV
Субдискретизация насыщенности : 4:2:0
Битовая глубина : 8 бит
Тип развёртки : Прогрессивная
Метод сжатия : С потерями
Бит/(Пиксели*Кадры) : 0.318
Размер потока : 638 Мбайт (91%)
Библиотека кодирования : XviD 1.2.1 (UTC 2008-12-04)
Аудио
Идентификатор : 1
Формат : MPEG Audio
Версия формата : Version 1
Профиль формата : Layer 3
Режим : Joint stereo
Расширение режима : MS Stereo
Идентификатор кодека : 55
Идентификатор кодека/Подсказка : MP3
Продолжительность : 43 м.
Вид битрейта : Постоянный
Битрейт : 192 Кбит/сек
Каналы : 2 канала
Частота : 48,0 КГц
Метод сжатия : С потерями
Размер потока : 59,4 Мбайт (8%)
Выравнивание : Соединение по промежуткам
Продолжительность промежутка : 40 мс. (1,00 видеокадр)
Время предзагрузки промежутка : 504 мс.
Библиотека кодирования : LAME3.99r
Настройки программы : -m j -V 4 -q 2 -lowpass 18.6 -b 192
Скриншот c названием фильма Скриншоты -
Скачать

Скачать торрент!

Как скачивать? · Что такое торрент? · Рейтинг и ограничения

Сайт не распространяет и не хранит электронные версии произведений, а лишь предоставляет доступ к создаваемому пользователями каталогу ссылок на торрент-файлы, которые содержат только списки хеш-сумм

[Профиль] [ЛС]
Показать сообщения:    
Ответить на тему

Текущее время: Сегодня 22:29

Часовой пояс: GMT + 4



Вы не можете начинать темы
Вы не можете отвечать на сообщения
Вы не можете редактировать свои сообщения
Вы не можете удалять свои сообщения
Вы не можете голосовать в опросах
Вы не можете прикреплять файлы к сообщениям
Вы не можете скачивать файлы