Колесо любви (Эрнест Ясан) [1994 г., комедия, мелодрама, DVDRip]

Ответить на тему
 
Автор Сообщение

user ®

Стаж: 7 лет 7 месяцев

Сообщений: 20008

Пост Пост: #1 от 30-Апр-2014 02:05

[Цитировать]

-Колесо любви--Год выпуска: 1994
Жанр: комедия, мелодрама
Продолжительность: 01:23:25--Режиссер: Эрнест Ясан--В ролях:
Михаил Пореченков, Мария Липкина, Анна Самохина, Иван Краско, Евгений Ермолин, Арташес Алексанян, Зоя Буряк, Игорь Дмитриев, Елена Рудь, Анатолий Горин, Валентина Ковель, Татьяна Григорьева, Людвиг Шунке, Денис Синявский, Зоя Шатохина, Ирина Сабанова, Максим Ясан, Лидия Никитина, Мария Кузнецова
--Описание:
Кирилл — мечта и предел желаний многих женщин. Он служит юношей по вызову в фирме, оказывающей интимные услуги. На него большой спрос, он прилично зарабатывает, но сердце Кирилла жаждет большой и чистой любви и она приходит в образе черноокой дикой горянки-беженки. Диана работает все в том же заведении уборщицей, она влюблена в Кирилла и то и дело срывает образцовое выполнение Кириллом его обязанностей. Кирилл влюбляется в Диану, но подступиться к ней трудно — ее охраняют два брата-горца, готовых оторвать голову каждому, кто приблизится к их сестре, девушку прочат в жены богатому старику с Кавказа…
-Доп. информация:- -Сэмпл Рип совместим с бытовыми DVD-проигрывателями.--Качество видео: DVDRip
Формат видео: AVI
Видео: 592x448 (1.32:1), 25 fps, XviD build 73, ~1101 kbps avg, 0.17 bit/pixel
Аудио: 48 kHz, MPEG Layer 3, 2 ch, 128.00 kbps-
MediaInfo
General
Complete name :\Koleso_lubvi_(1994).DVDRip.XviD.mp3_[All.Films][RG].avi
Format : AVI
Format/Info : Audio Video Interleave
File size : 741 MiB
Duration : 1h 23mn
Overall bit rate : 1 239 Kbps
Movie name : Колесо любви (1994) DVDRip | [All.Films][RG]
Director : |
Writing application : VirtualDubMod 1.5.10.3 | www.virtualdub-fr.org || (build 2550/release)
Video
ID : 0
Format : MPEG-4 Visual
Format profile : Advanced Simple@L5
Format settings, BVOP : 2
Format settings, QPel : No
Format settings, GMC : No warppoints
Format settings, Matrix : Custom
Codec ID : XVID
Codec ID/Hint : XviD
Duration : 1h 23mn
Bit rate : 1 101 Kbps
Width : 592 pixels
Height : 448 pixels
Display aspect ratio : 4:3
Frame rate : 25.000 fps
Color space : YUV
Chroma subsampling : 4:2:0
Bit depth : 8 bits
Scan type : Progressive
Compression mode : Lossy
Bits/(Pixel*Frame) : 0.166
Stream size : 658 MiB (89%)
Writing library : XviD 73
Audio
ID : 1
Format : MPEG Audio
Format version : Version 1
Format profile : Layer 3
Codec ID : 55
Codec ID/Hint : MP3
Duration : 1h 23mn
Bit rate mode : Constant
Bit rate : 128 Kbps
Channel count : 2 channels
Sampling rate : 48.0 KHz
Compression mode : Lossy
Stream size : 76.5 MiB (10%)
Alignment : Aligned on interleaves
Interleave, duration : 40 ms (1.00 video frame)
Interleave, preload duration : 504 ms
Writing library : LAME3.99r
Encoding settings : -m s -V 4 -q 0 -lowpass 17 -b 128
Скриншоты
Скачать

Скачать торрент!

Как скачивать? · Что такое торрент? · Рейтинг и ограничения

Сайт не распространяет и не хранит электронные версии произведений, а лишь предоставляет доступ к создаваемому пользователями каталогу ссылок на торрент-файлы, которые содержат только списки хеш-сумм

[Профиль] [ЛС]
Показать сообщения:    
Ответить на тему

Текущее время: Сегодня 08:23

Часовой пояс: GMT + 4



Вы не можете начинать темы
Вы не можете отвечать на сообщения
Вы не можете редактировать свои сообщения
Вы не можете удалять свои сообщения
Вы не можете голосовать в опросах
Вы не можете прикреплять файлы к сообщениям
Вы не можете скачивать файлы