My Scene: Звезды Голливуда / My Scene Goes Hollywood: The Movie (Эрик Фогель / Eric Fogel) [2005, мультфильм, DVDRip] Dub

Ответить на тему
 
Автор Сообщение

user ®

Стаж: 13 лет

Сообщений: 15041

Пост Пост: #1 от 29-Апр-2014 20:50

[Цитировать]

My Scene: Звезды Голливуда / My Scene Goes Hollywood: The Movie«Свет, камера, мода... Это её первый фильм!»- Страна: США
Жанр: мультфильм
Год выпуска: 2005
Продолжительность: 01:15:51
Перевод: Профессиональный (полное дублирование)
Русские субтитры: Нет-Режиссер: Эрик Фогель / Eric Fogel-Роли озвучивали:этлин Барр (Madison, озвучка), Келли Шеридан (Barbie, озвучка), Николь Боума (Chelsea, озвучка), Теган Мосс (Nolee, озвучка), Меган Блэк (Delancey, озвучка), Сэффрон Хендерсон (Audra, озвучка), Терри Классен (Jim, озвучка), Алессандро Джулиани (River, озвучка), Шейн Майер (Ellis, озвучка), Кирби Морроу (Hudson, озвучка), Марк Хилдрет (Sutton, озвучка), Сэм Винсент (Ryan, озвучка)-Описание: Нет девушки, чтo не мeчтaет быть кинозвездой, и знаменитaя кукла Барби и ee верныe подружки - Мэдисон, Челси, Ноли и Дилэнси - не исключениe. Однажды им выпaдает шанс сыграть маленькие роли в голливудском фильме. Показаться на экране в шикарных нарядах, блеснуть идеальным макияжем и продемонстрировать моднейшие прически - что может быть лучше!? Ну, кое-что может. Например, когда Мэдисон вдруг приглашают на большую роль в паре с популярнейшим молодым актером! Вот это удача! Однако не вскружит ли голову Мэдисон ее нежданная слава? Не забудет ли она подруг ради волшебного мира кино?-Рейтинг:
-Мировая премьера: 30 августа 2005
Релиз на DVD: 8 июня 2010, «Уолт Дисней Компани СНГ»--Качество: DVDRip
Формат: AVI
Видео: 704x416 (1.69:1), 25 fps, XviD build 65 ~2387 kbps avg, 0.33 bit/pixel
Аудио: 48 kHz, AC3 Dolby Digital, 2/0 (L,R) ch, ~192 kbps
Субтитры: Отсутствуют
-MI
General
Complete name : C:\Users\Pc\Desktop\MY_SCENE_GOES_HOLLYWOOD_T01.avi
Format : AVI
Format/Info : Audio Video Interleave
File size : 1.37 GiB
Duration : 1h 15mn
Overall bit rate : 2 589 Kbps
Writing application : VirtualDubMod 1.5.10.3 | www.virtualdub-fr.org || (build 2550/release)
Writing library : VirtualDubMod build 2550/release
Video
ID : 0
Format : MPEG-4 Visual
Format profile : Advanced Simple@L5
Format settings, BVOP : 2
Format settings, QPel : No
Format settings, GMC : No warppoints
Format settings, Matrix : Custom
Codec ID : XVID
Codec ID/Hint : XviD
Duration : 1h 15mn
Bit rate : 2 388 Kbps
Width : 704 pixels
Height : 416 pixels
Display aspect ratio : 1.692
Frame rate : 25.000 fps
Color space : YUV
Chroma subsampling : 4:2:0
Bit depth : 8 bits
Scan type : Progressive
Compression mode : Lossy
Bits/(Pixel*Frame) : 0.326
Stream size : 1.26 GiB (92%)
Writing library : XviD 65
Audio
ID : 1
Format : AC-3
Format/Info : Audio Coding 3
Format profile : Dolby Digital
Mode extension : CM (complete main)
Codec ID : 2000
Duration : 1h 15mn
Bit rate mode : Constant
Bit rate : 192 Kbps
Channel(s) : 2 channels
Channel positions : Front: L R
Sampling rate : 48.0 KHz
Bit depth : 16 bits
Compression mode : Lossy
Stream size : 104 MiB (7%)
Alignment : Split accross interleaves
Interleave, duration : 40 ms (1.00 video frame)
Interleave, preload duration : 500 ms
Скачать

Скачать торрент! My Scene: Звезды Голливуда / My Scene Goes Hollywood: The Movie (Эрик Фогель / Eric Fogel) [2005, мультфильм, DVDRip] Dub

Как скачивать? · Что такое торрент? · Рейтинг и ограничения

Сайт не распространяет и не хранит электронные версии произведений, а лишь предоставляет доступ к создаваемому пользователями каталогу ссылок на торрент-файлы, которые содержат только списки хеш-сумм

[Профиль] [ЛС]
Показать сообщения:    
Ответить на тему

Текущее время: Сегодня 19:12

Часовой пояс: GMT + 4



Вы не можете начинать темы
Вы не можете отвечать на сообщения
Вы не можете редактировать свои сообщения
Вы не можете удалять свои сообщения
Вы не можете голосовать в опросах
Вы не можете прикреплять файлы к сообщениям
Вы не можете скачивать файлы