Честь дракона 2 / Tom yum goong 2 / The Protector 2 / Honour of the Dragon 2 (Прачия Пинкаю / Prachya Pinkaew) [2013, боевик, триллер, криминал, BDRip] MVO (Пиратская студия / B & K) + VO (Zelesk)

Ответить на тему
 
Автор Сообщение

user ®

Стаж: 13 лет

Сообщений: 15071

Пост Пост: #1 от 29-Апр-2014 17:40

[Цитировать]

Честь дракона 2 / Tom yum goong 2 / The Protector 2 / Honour of the Dragon 2 Страна: Таиланд
Жанр: боевик, триллер, криминал
Год выпуска: 2013
Продолжительность: 01:44:43
Перевод 1: Любительский (двухголосый, закадровый) Пиратская студия / B & K
Перевод 2: одноголосый, закадровый Zelesk
Оригинальная аудиодорожка: нет
Режиссер: Прачия Пинкаю / Prachya Pinkaew
В ролях: Тони Джа, Йанин Висмитананда, Роберт Фитцджеральд Диггз, Маррезе Крамп, Винс Макилинг, Уджал Тхапа, Эдди Руис, Эдгар Варгас, Джон Данг, Джавед Эль Берни, Рэйден Интегра, Ейяинг Рхатха Пхонгам...
Описание: Влиятельного владельца слоновьего заповедника Сучарта убивает неизвестный эксперт по боевым искусствам, использовавший три удара по смертельным для жизни точкам, и Кхам становится основным подозреваемым в убийстве, так как он был последним, кого видели на месте преступления. Ему пришлось бежать от властей, тем временем за ним начали охоту двойняшки — племянницы Сучарта. К счастью, его выручил сержант Марк, агент Интерпола, присланный из Сиднея для выполнения некоего секретного задания...
Качество видео: BDRip [BDRemux 2013 1080p x264 22 GB]
Формат видео: AVI
Видео: XviD, 720x304, 23.976 fps, 1600 kbps, 0.313 bit/pixel
Аудио 1: AC3, 48 kHz, 2 ch, 192 kbps [MVO-Пиратская студия / B & K]
Аудио 2: AC3, 48 kHz, 2 ch, 192 kbps [VO-Zelesk]
Mediainfo
General
Format : AVI
Format/Info : Audio Video Interleave
File size : 1.46 GiB
Duration : 1h 44mn
Overall bit rate : 1 996 Kbps
Writing application : VirtualDubMod 1.5.10.3 (build 2550/release)
Writing library : VirtualDubMod build 2550/release
Video
ID : 0
Format : MPEG-4 Visual
Format profile : Advanced Simple@L5
Format settings, BVOP : 2
Format settings, QPel : No
Format settings, GMC : No warppoints
Format settings, Matrix : Custom
Codec ID : XVID
Codec ID/Hint : XviD
Duration : 1h 44mn
Bit rate : 1 600 Kbps
Width : 720 pixels
Height : 304 pixels
Display aspect ratio : 2.35:1
Frame rate : 23.976 fps
Color space : YUV
Chroma subsampling : 4:2:0
Bit depth : 8 bits
Scan type : Progressive
Compression mode : Lossy
Bits/(Pixel*Frame) : 0.304
Stream size : 1.17 GiB (80%)
Writing library : XviD 1.2.1 (UTC 2008-12-04)
Audio #1
ID : 1
Format : AC-3
Format/Info : Audio Coding 3
Mode extension : CM (complete main)
Format settings, Endianness : Big
Codec ID : 2000
Duration : 1h 44mn
Bit rate mode : Constant
Bit rate : 192 Kbps
Channel(s) : 2 channels
Channel positions : Front: L R
Sampling rate : 48.0 KHz
Bit depth : 16 bits
Compression mode : Lossy
Stream size : 144 MiB (10%)
Alignment : Split accross interleaves
Interleave, duration : 42 ms (1.00 video frame)
Interleave, preload duration : 500 ms
Audio #2
ID : 2
Format : AC-3
Format/Info : Audio Coding 3
Mode extension : CM (complete main)
Format settings, Endianness : Big
Codec ID : 2000
Duration : 1h 44mn
Bit rate mode : Constant
Bit rate : 192 Kbps
Channel(s) : 2 channels
Channel positions : Front: L R
Sampling rate : 48.0 KHz
Bit depth : 16 bits
Compression mode : Lossy
Stream size : 144 MiB (10%)
Alignment : Split accross interleaves
Interleave, duration : 42 ms (1.00 video frame)
Interleave, preload duration : 500 ms
Covers DVD Скриншот c названием фильма Скриншоты
Скачать

Скачать торрент! Честь дракона 2 / Tom yum goong 2 / The Protector 2 / Honour of the Dragon 2 (Прачия Пинкаю / Prachya Pinkaew) [2013, боевик, триллер, криминал, BDRip] MVO (Пиратская студия / B & K) + VO (Zelesk)

Как скачивать? · Что такое торрент? · Рейтинг и ограничения

Сайт не распространяет и не хранит электронные версии произведений, а лишь предоставляет доступ к создаваемому пользователями каталогу ссылок на торрент-файлы, которые содержат только списки хеш-сумм

[Профиль] [ЛС]
Показать сообщения:    
Ответить на тему

Текущее время: Сегодня 17:47

Часовой пояс: GMT + 4



Вы не можете начинать темы
Вы не можете отвечать на сообщения
Вы не можете редактировать свои сообщения
Вы не можете удалять свои сообщения
Вы не можете голосовать в опросах
Вы не можете прикреплять файлы к сообщениям
Вы не можете скачивать файлы