Туз в рукаве / Козырь в рукаве / Qian Ren Gong Lue (Тян Юшен / Tian yu Sheng) [2014, Китай, комедия, мелодрама, HDTVRip] VO (FreshStudio)

Ответить на тему
 
Автор Сообщение

user ®

Стаж: 10 лет

Сообщений: 18988

Пост Пост: #1 от 29-Апр-2014 11:20

[Цитировать]

-Туз в рукаве / Козырь в рукаве / Qian Ren Gong Lue- Страна: Китай
Год выпуска: 2014
Жанр: комедия, мелодрама
Продолжительность: 108 минут.
Перевод: Одноголосая озвучка (FreshStudio)
Пример - http://sendfile.su/973151-Режиссер: Tian yu Sheng
В ролях:
Хань Гэн - Мэн Юн
Яо Хинтонг - Ся Лу
Ханьюй Чжан - Чжао Мин
Кай Чжэн - Ю. Фэй
-Описание: Фильм рассказывает историю о том, как Мэн Юнь и Ся Лу случайно встречаются на свадьбе. Они знакомятся, узнают друг друга, начинают жить вместе, влюбляются… Но через некоторое время в их жизни один за другим появляются их бывшие, это становится тяжелым испытанием для их чувств. Смогут ли они с помощью их близкого друга Юй Фэя и молчаливой поддержки Луси сопротивляться своим бывшим?-Доп.информация:
Перевод на русский язык: Русские субтитры фансаб-группы Crazy Cats-Качество видео: HDTVRip
Формат: MKV
Видео: MPEG4 Video (H.263) 1024x436 25fps 800 Kbps
Аудио: MP3 48000Hz stereo Язык Русский Язык Русский (в составе контейнера) ; Озвучка: одноголосая, FreshStudio
Скриншоты МИ
General
Unique ID : 254245754489409964676980032000413307938 (0xBF45F3808FD4D20FAB919FC9ACB69422)
Complete name : E:\Download\Туз в рукаве [Qian Ren Gong Lue] FreshStudio.mkv
Format : Matroska
Format version : Version 4 / Version 2
File size : 692 MiB
Duration : 1h 44mn
Overall bit rate : 930 Kbps
Encoded date : UTC 2014-04-28 14:14:42
Writing application : mkvmerge v6.6.0 ('The Edge Of The In Between') built on Dec 1 2013 17:55:00
Writing library : libebml v1.3.0 + libmatroska v1.4.1
Video
ID : 1
Format : AVC
Format/Info : Advanced Video Codec
Format profile : High@L3.2
Format settings, CABAC : Yes
Format settings, ReFrames : 4 frames
Codec ID : V_MPEG4/ISO/AVC
Duration : 1h 44mn
Bit rate : 800 Kbps
Width : 1 024 pixels
Height : 436 pixels
Display aspect ratio : 2.35:1
Frame rate mode : Constant
Frame rate : 25.000 fps
Color space : YUV
Chroma subsampling : 4:2:0
Bit depth : 8 bits
Scan type : Progressive
Bits/(Pixel*Frame) : 0.072
Stream size : 583 MiB (84%)
Writing library : x264 core 116 r2074 2641b9e
Encoding settings : cabac=1 / ref=3 / deblock=1:0:0 / analyse=0x3:0x113 / me=hex / subme=7 / psy=1 / psy_rd=1.00:0.00 / mixed_ref=1 / me_range=16 / chroma_me=1 / trellis=1 / 8x8dct=1 / cqm=0 / deadzone=21,11 / fast_pskip=1 / chroma_qp_offset=-2 / threads=12 / sliced_threads=0 / nr=0 / decimate=1 / interlaced=0 / bluray_compat=0 / constrained_intra=0 / bframes=3 / b_pyramid=2 / b_adapt=1 / b_bias=0 / direct=1 / weightb=1 / open_gop=0 / weightp=2 / keyint=120 / keyint_min=12 / scenecut=40 / intra_refresh=0 / rc_lookahead=40 / rc=2pass / mbtree=1 / bitrate=800 / ratetol=1.0 / qcomp=0.60 / qpmin=0 / qpmax=69 / qpstep=4 / cplxblur=20.0 / qblur=0.5 / ip_ratio=1.40 / aq=1:1.00
Default : Yes
Forced : No
Audio
ID : 2
Format : MPEG Audio
Format version : Version 1
Format profile : Layer 3
Codec ID : A_MPEG/L3
Codec ID/Hint : MP3
Duration : 1h 44mn
Bit rate mode : Constant
Bit rate : 128 Kbps
Channel(s) : 1 channel
Sampling rate : 44.1 KHz
Compression mode : Lossy
Stream size : 95.3 MiB (14%)
Language : Russian
Default : Yes
Forced : Yes
Скриншот с названием
Скачать

Скачать торрент!

Как скачивать? · Что такое торрент? · Рейтинг и ограничения

Сайт не распространяет и не хранит электронные версии произведений, а лишь предоставляет доступ к создаваемому пользователями каталогу ссылок на торрент-файлы, которые содержат только списки хеш-сумм

загрузка...
[Профиль] [ЛС]

Random

Стаж: 1 месяц 4 дня

Сообщений: 1

Пост Пост: #2 от 18-Мар-2019 12:29 (спустя 4 года 10 месяцев)

[Цитировать]

Автор, раздача будет?
[Профиль] [ЛС]
Показать сообщения:    
Ответить на тему

Текущее время: Сегодня 04:26

Часовой пояс: GMT + 4



Вы не можете начинать темы
Вы не можете отвечать на сообщения
Вы не можете редактировать свои сообщения
Вы не можете удалять свои сообщения
Вы не можете голосовать в опросах
Вы не можете прикреплять файлы к сообщениям
Вы не можете скачивать файлы