Прошлым летом в Чулимске (Виктор Демент) [2014, Россия, драма, HDTVRip]

Ответить на тему
 
Автор Сообщение

user ®

Стаж: 7 лет 7 месяцев

Сообщений: 20008

Пост Пост: #1 от 29-Апр-2014 06:10

[Цитировать]

Прошлым летом в Чулимске
Год выпуска: 2014
Страна: Россия
Жанр: драма
Продолжительность: 01:26:01
Перевод: Не требуется
Субтитры: нет
Режиссер: Виктор Демент
В ролях: Сергей Безруков (Владимир Шаманов), Мария Поезжаева (Валентина), Николай Клямчук (Пашка), Анна Невская (Кашкина), Александр Самойленко (Мечеткин)--Описание: Жизнь небольшого таежного городка Чулимска вращается вокруг маленького буфета в котором работает молодая девушка Валентина. Валентина влюблена в следователя Шаманова, закрытого, строгого, но обаятельного мужчину, который недавно приехал в Чулимск.
Несмотря на любовные отношения Шаманова с аптекаршей Зиной и его зрелый возраст, Валентина находит в себе мужество признаться Шаманову в любви. До этого момента никогда не замечавший красоту и уникальность Валентины, Шаманов вдруг осознаёт, что эта милая, скромная девушка и есть его счастье...
-[/url]Рейтинг
kinopoisk.ru: 6.000 (185)
-Качество: HDTVRip
Формат: AVI //SAMPLE//
Видео: 720x400 (1.80:1), 25 fps, XviD build 65 ~2224 kbps avg, 0.31 bit/pixel
Аудио: 48 kHz, AC3 Dolby Digital, 2/0 (L,R) ch, ~192 kbps

MediaInfo
Общее
Полное имя : F:\Video\AVI\Films\Proshlym.Letom.V.Chulimske.2014.RUS.HDTVRip.XviD.AC3.-AllFilms.avi
Формат : AVI
Формат/Информация : Audio Video Interleave
Размер файла : 1,46 Гбайт
Продолжительность : 1 ч. 26 м.
Общий поток : 2426 Кбит/сек
Название фильма : Прошлым летом в Чулимске
Режиссёр : Shevon (HDTV 1080i)
Программа кодирования : VirtualDubMod 1.5.10.3 | www.virtualdub-fr.org || (build 2550/release)
Правообладатель : AllFilms
Видео
Идентификатор : 0
Формат : MPEG-4 Visual
Профиль формата : Advanced Simple@L5
Параметр BVOP формата : 1
Параметр QPel формата : Нет
Параметр GMC формата : Без точки перехода
Параметр матрицы формата : Выборочная
Идентификатор кодека : XVID
Идентификатор кодека/Подсказка : XviD
Продолжительность : 1 ч. 26 м.
Битрейт : 2224 Кбит/сек
Ширина : 720 пикселей
Высота : 400 пикселей
Соотношение сторон : 16:9
Частота кадров : 25,000 кадров/сек
Цветовое пространство : YUV
Субдискретизация насыщенности : 4:2:0
Битовая глубина : 8 бит
Тип развёртки : Прогрессивная
Метод сжатия : С потерями
Бит/(Пиксели*Кадры) : 0.309
Размер потока : 1,34 Гбайт (92%)
Библиотека кодирования : XviD 65
Аудио
Идентификатор : 1
Формат : AC-3
Формат/Информация : Audio Coding 3
Расширение режима : CM (complete main)
Параметр Endianness формата : Big
Идентификатор кодека : 2000
Продолжительность : 1 ч. 26 м.
Вид битрейта : Постоянный
Битрейт : 192 Кбит/сек
Каналы : 2 канала
Расположение каналов : Front: L R
Частота : 48,0 КГц
Битовая глубина : 16 бит
Метод сжатия : С потерями
Размер потока : 118 Мбайт (8%)
Выравнивание : Разделение по промежуткам
Продолжительность промежутка : 40 мс. (1,00 видеокадр)
Время предзагрузки промежутка : 500 мс.
Скриншоты -
Скачать

Скачать торрент!

Как скачивать? · Что такое торрент? · Рейтинг и ограничения

Сайт не распространяет и не хранит электронные версии произведений, а лишь предоставляет доступ к создаваемому пользователями каталогу ссылок на торрент-файлы, которые содержат только списки хеш-сумм

[Профиль] [ЛС]
Показать сообщения:    
Ответить на тему

Текущее время: Сегодня 08:06

Часовой пояс: GMT + 4



Вы не можете начинать темы
Вы не можете отвечать на сообщения
Вы не можете редактировать свои сообщения
Вы не можете удалять свои сообщения
Вы не можете голосовать в опросах
Вы не можете прикреплять файлы к сообщениям
Вы не можете скачивать файлы