Скорость 2: Контроль над круизом / Speed 2: Cruise Control (Ян де Бонт / Jan de Bont) [1997, США, боевик, триллер, мелодрама, криминал, BDRip 720p] MVO + Original (Eng) + Subs (Rus, Eng)

Ответить на тему
 
Автор Сообщение

user ®

Стаж: 7 лет 7 месяцев

Сообщений: 20008

Пост Пост: #1 от 28-Апр-2014 23:50

[Цитировать]

Скорость 2: Контроль над круизом / Speed 2: Cruise Control
Страна: США
Жанр: боевик, триллер, мелодрама, криминал
Год выпуска: 1997
Продолжительность: 02:05:10
Перевод: Профессиональный (многоголосый закадровый) Blu-ray EUR
Cубтитры: русские, английские
Оригинальная аудиодорожка: английский
Режиссер: Ян де Бонт / Jan de Bont
В ролях: Сандра Баллок, Джейсон Патрик, Уиллем Дефо, Темуэра Моррисон, Брайан МакКарди, Майкл Дж. Хэгерти, Коллин Кэмп, Лоис Чайлз, Френсис Гуинан
Описание: Энни предупредила своего нового ухажера, что на ее долю хватит приключений, подобных тому, что ей пришлось пережить в первом фильме, и тот соврал, что работает пляжным полицейским, не разрешая молодежи курить и мусорить. Очень скоро правда всплывает на поверхность и она узнает, что на самом деле парень работает в спецотряде и выполняет чрезвычайно опасные задания. Чтобы загладить свою вину, он приглашает Энни в развлекательную поездку на роскошном круизном лайнере по Карибскому морю. Как на грех на этом лайнере оказывается слегка свихнувшийся компьютерщик, которому фирма, построившая лайнер, не начислила в полной мере зарплату. Систему управления он знает как свои пять пальцев и терпеть произвол акул капитализма не намерен…

MPAA: PG-13 - Детям до 13 лет просмотр не желателен-Сэмпл: http://multi-up.com/969763
Тип релиза: BDRip 720p [Speed 2: Cruise Control (1997) Blu-ray EUR 1080p AVC DTS 5.1-hgking]
Контейнер: MKV
Видео: MPEG-4 AVC, 1280x532 (2.40:1), 6515 kbps, 23,976 fps, 0,399 bpp
Аудио №1: русский / DTS / 5.1 / 48 kHz / 755 kbps / 24 bit |MVO|
Аудио №2: английский / DTS / 5.1 / 48 kHz / 1510 kbps / 24 bit
Навигация по главам: есть
Формат субтитров: softsub (SRT)

Знаете ли Вы, что...
  • Оригинальный сценарий фильма задумывался как третья часть «Крепкого орешка».
  • Нефтяной танкер в фильме носит имя «Эйндховен» (Eindhoven). Эйндховен - это родной город Яна де Бонта в Голландии.
  • На одну из ролей рассматривался Мэттью МакКонахи.
  • Киану Ривз отказался от участия в фильме, предпочтя поехать на гастроли со своей группой «Dogstar».
  • Гари Олдман отказался от роли злодея, и вместо нее сыграл злодея в фильме «Самолет президента».
  • еще 2 факта
    x264
x264 [info]: frame I:1044  Avg QP:16.03  size: 95773
x264 [info]: frame P:49683 Avg QP:17.51  size: 54465
x264 [info]: frame B:129341 Avg QP:20.12  size: 26776
x264 [info]: consecutive B-frames:  4.5%  8.9% 14.8% 26.2% 15.6% 21.4%  4.1%  1.3%  1.1%  1.2%  1.0%
x264 [info]: mb I  I16..4:  5.7% 83.0% 11.3%
x264 [info]: mb P  I16..4:  1.1% 35.5%  2.1%  P16..4: 20.6% 28.0%  9.0%  0.0%  0.0%    skip: 3.7%
x264 [info]: mb B  I16..4:  0.1%  5.3%  0.4%  B16..8: 37.2% 27.4%  6.0%  direct: 8.3%  skip:15.3%  L0:46.0% L1:45.4% BI: 8.6%
x264 [info]: 8x8 transform intra:91.0% inter:68.9%
x264 [info]: direct mvs  spatial:99.8% temporal:0.2%
x264 [info]: coded y,uvDC,uvAC intra: 94.9% 93.8% 80.6% inter: 49.8% 51.4% 26.1%
x264 [info]: i16 v,h,dc,p: 14% 10%  6% 70%
x264 [info]: i8 v,h,dc,ddl,ddr,vr,hd,vl,hu:  8%  7%  9% 10% 14% 12% 14% 11% 14%
x264 [info]: i4 v,h,dc,ddl,ddr,vr,hd,vl,hu: 29%  6%  4%  7% 13% 11% 12%  8% 10%
x264 [info]: i8c dc,h,v,p: 50% 19% 14% 18%
x264 [info]: Weighted P-Frames: Y:40.2% UV:35.0%
x264 [info]: ref P L0: 41.1%  8.2% 21.3%  8.4%  6.0%  4.4%  3.8%  2.6%  2.5%  1.4%  0.4%
x264 [info]: ref B L0: 72.3% 12.5%  6.1%  3.3%  2.3%  1.9%  1.2%  0.4%
x264 [info]: ref B L1: 92.7%  7.3%
x264 [info]: kb/s:6677.91
x264 [total]: encoded 180068 frames, 2.75 fps, 6677.91 kb/s, duration 18:12:05.44
Source vs Rip MediaInfo
Format                           : Matroska
Format version                   : Version 4 / Version 2
File size                        : 7.83 GiB
Duration                         : 2h 5mn
Overall bit rate                 : 8 958 Kbps
Movie name                       : VIKOSOL
Encoded date                     : UTC 2014-04-26 13:49:16
Writing application              : mkvmerge v6.8.0 ('Theme for Great Cities') 64bit built on Mar  2 2014 21:34:26
Writing library                  : libebml v1.3.0 + libmatroska v1.4.1
Video
ID                               : 1
Format                           : AVC
Format/Info                      : Advanced Video Codec
Format profile                   : High@L4.1
Format settings, CABAC           : Yes
Format settings, ReFrames        : 9 frames
Codec ID                         : V_MPEG4/ISO/AVC
Duration                         : 2h 5mn
Bit rate                         : 6 516 Kbps
Width                            : 1 280 pixels
Height                           : 532 pixels
Display aspect ratio             : 2.40:1
Frame rate                       : 23.976 fps
Color space                      : YUV
Chroma subsampling               : 4:2:0
Bit depth                        : 8 bits
Scan type                        : Progressive
Bits/(Pixel*Frame)               : 0.399
Stream size                      : 5.70 GiB (73%)
Writing library                  : x264 core 142 r2431kMod ac76440
Encoding settings                : cabac=1 / ref=9 / deblock=1:-3:-3 / analyse=0x3:0x113 / me=tesa / subme=11 / psy=1 / fade_compensate=0.00 / psy_rd=1.00:0.05 / mixed_ref=1 / me_range=24 / chroma_me=1 / trellis=2 / 8x8dct=1 / cqm=0 / deadzone=21,11 / fast_pskip=0 / chroma_qp_offset=-3 / threads=6 / lookahead_threads=1 / sliced_threads=0 / nr=0 / decimate=0 / interlaced=0 / bluray_compat=0 / constrained_intra=0 / fgo=0 / bframes=10 / b_pyramid=2 / b_adapt=2 / b_bias=0 / direct=3 / weightb=1 / open_gop=0 / weightp=2 / keyint=240 / keyint_min=23 / scenecut=40 / intra_refresh=0 / rc=crf / mbtree=0 / crf=17.5000 / qcomp=0.60 / qpmin=0 / qpmax=69 / qpstep=4 / ip_ratio=1.40 / pb_ratio=1.30 / aq=1:0.70
Language                         : English
Audio #1
ID                               : 2
Format                           : DTS
Format/Info                      : Digital Theater Systems
Codec ID                         : A_DTS
Duration                         : 2h 5mn
Bit rate mode                    : Constant
Bit rate                         : 755 Kbps
Channel(s)                       : 6 channels
Channel positions                : Front: L C R, Side: L R, LFE
Sampling rate                    : 48.0 KHz
Bit depth                        : 24 bits
Compression mode                 : Lossy
Stream size                      : 676 MiB (8%)
Title                            : MVO
Language                         : Russian
Audio #2
ID                               : 3
Format                           : DTS
Format/Info                      : Digital Theater Systems
Codec ID                         : A_DTS
Duration                         : 2h 5mn
Bit rate mode                    : Constant
Bit rate                         : 1 510 Kbps
Channel(s)                       : 6 channels
Channel positions                : Front: L C R, Side: L R, LFE
Sampling rate                    : 48.0 KHz
Bit depth                        : 24 bits
Compression mode                 : Lossy
Stream size                      : 1.32 GiB (17%)
Language                         : English
Text #1
ID                               : 4
Format                           : UTF-8
Codec ID                         : S_TEXT/UTF8
Codec ID/Info                    : UTF-8 Plain Text
Language                         : Russian
Text #2
ID                               : 5
Format                           : UTF-8
Codec ID                         : S_TEXT/UTF8
Codec ID/Info                    : UTF-8 Plain Text
Language                         : English
Menu
00:00:00.000                     : :Chapter 01
00:00:57.974                     : :Chapter 03
00:01:50.193                     : :Chapter 05
00:06:46.739                     : :Chapter 07
00:09:10.550                     : :Chapter 09
00:14:39.003                     : :Chapter 11
00:16:03.212                     : :Chapter 13
00:20:29.144                     : :Chapter 15
00:25:15.639                     : :Chapter 17
00:28:27.747                     : :Chapter 19
00:32:22.398                     : :Chapter 21
00:37:16.150                     : :Chapter 23
00:40:35.516                     : :Chapter 25
00:44:36.131                     : :Chapter 27
00:52:38.613                     : :Chapter 29
00:55:12.726                     : :Chapter 31
00:58:46.147                     : :Chapter 33
01:05:23.920                     : :Chapter 35
01:08:47.832                     : :Chapter 37
01:12:48.530                     : :Chapter 39
01:15:51.380                     : :Chapter 41
01:18:48.724                     : :Chapter 43
01:21:49.821                     : :Chapter 45
01:24:46.498                     : :Chapter 47
01:29:00.043                     : :Chapter 49
01:31:54.050                     : :Chapter 51
01:35:10.079                     : :Chapter 53
01:43:51.892                     : :Chapter 55
01:47:56.887                     : :Chapter 57
01:53:00.565                     : :Chapter 59
01:55:45.647                     : :Chapter 61
01:57:01.806                     : :Chapter 63
02:05:10.085                     : :Chapter 64
Скриншоты
Скачать

Скачать торрент!

Как скачивать? · Что такое торрент? · Рейтинг и ограничения

Сайт не распространяет и не хранит электронные версии произведений, а лишь предоставляет доступ к создаваемому пользователями каталогу ссылок на торрент-файлы, которые содержат только списки хеш-сумм

[Профиль] [ЛС]
Показать сообщения:    
Ответить на тему

Текущее время: Сегодня 00:27

Часовой пояс: GMT + 4



Вы не можете начинать темы
Вы не можете отвечать на сообщения
Вы не можете редактировать свои сообщения
Вы не можете удалять свои сообщения
Вы не можете голосовать в опросах
Вы не можете прикреплять файлы к сообщениям
Вы не можете скачивать файлы