Скорость 2: Контроль над круизом / Speed 2: Cruise Control (Ян де Бонт / Jan de Bont) [1997, США, боевик, триллер, мелодрама, криминал, BDRip 1080p ] MVO + Original (Eng) + Subs (Rus, Eng)

Ответить на тему
 
Автор Сообщение

user ®

Стаж: 7 лет 7 месяцев

Сообщений: 20008

Пост Пост: #1 от 28-Апр-2014 23:50

[Цитировать]

Скорость 2: Контроль над круизомSpeed 2: Cruise Control«120 Minuten purer Nervenkitzel»- Страна: США
Жанр: боевик, триллер, мелодрама, криминал
Год выпуска: 1997
Продолжительность: 02:05:10
Перевод: Профессиональный (многоголосый закадровый) Blu-ray EUR
Cубтитры: русские (полные), английские (SDH)
Оригинальная аудиодорожка: английский
Режиссер: Ян де Бонт / Jan de Bont
В ролях: Сандра Баллок, Джейсон Патрик, Уиллем Дефо, Темуэра Моррисон, Брайан МакКарди, Майкл Дж. Хэгерти, Коллин Кэмп, Лоис Чайлз, Френсис Гуинан
Описание: Энни предупредила своего нового ухажера, что на ее долю хватит приключений, подобных тому, что ей пришлось пережить в первом фильме, и тот соврал, что работает пляжным полицейским, не разрешая молодежи курить и мусорить. Очень скоро правда всплывает на поверхность и она узнает, что на самом деле парень работает в спецотряде и выполняет чрезвычайно опасные задания. Чтобы загладить свою вину, он приглашает Энни в развлекательную поездку на роскошном круизном лайнере по Карибскому морю. Как на грех на этом лайнере оказывается слегка свихнувшийся компьютерщик, которому фирма, построившая лайнер, не начислила в полной мере зарплату. Систему управления он знает как свои пять пальцев и терпеть произвол акул капитализма не намерен…
Семпл
Тип релиза: BDRip 1080p [Speed 2: Cruise Control (1997) Blu-ray EUR 1080p AVC DTS 5.1-hgking]
Контейнер: MKV
Автор рипа: Vikosol
Видео: MPEG-4 AVC, 1920x798 (2.40:1), 15918 kbps, 23,976 fps, 0,433 bpp
Аудио: русский / DTS / 5.1 / 48 kHz / 755 kbps / 24 bit |MVO|
Аудио 2: английский / DTS / 5.1 / 48 kHz / 1510 kbps / 24 bit
Формат субтитров: softsub (SRT)

source vs rip log x264
x264 [info]: frame I:955   Avg QP:16.13  size:193358
x264 [info]: frame P:49375 Avg QP:17.71  size:122104
x264 [info]: frame B:129738 Avg QP:20.08  size: 69847
x264 [info]: consecutive B-frames:  4.1%  9.3% 14.8% 24.4% 16.8% 22.6%  4.5%  1.0%  1.6%  0.9%
x264 [info]: mb I  I16..4:  6.2% 87.3%  6.5%
x264 [info]: mb P  I16..4:  1.3% 44.7%  1.1%  P16..4: 19.1% 24.3%  5.5%  0.0%  0.0%    skip: 4.0%
x264 [info]: mb B  I16..4:  0.1%  9.9%  0.2%  B16..8: 39.4% 24.2%  4.1%  direct: 9.5%  skip:12.6%  L0:45.5% L1:44.0% BI:10.5%
x264 [info]: 8x8 transform intra:95.4% inter:65.4%
x264 [info]: direct mvs  spatial:99.9% temporal:0.1%
x264 [info]: coded y,uvDC,uvAC intra: 97.5% 95.0% 84.2% inter: 57.5% 58.8% 28.0%
x264 [info]: i16 v,h,dc,p: 15% 11%  7% 67%
x264 [info]: i8 v,h,dc,ddl,ddr,vr,hd,vl,hu:  6%  7% 10% 11% 14% 12% 14% 12% 14%
x264 [info]: i4 v,h,dc,ddl,ddr,vr,hd,vl,hu:  7%  8%  4%  9% 17% 14% 17% 10% 15%
x264 [info]: i8c dc,h,v,p: 53% 16% 14% 17%
x264 [info]: Weighted P-Frames: Y:37.6% UV:33.4%
x264 [info]: ref P L0: 47.0%  8.3% 23.1% 10.3%  7.9%  2.9%  0.5%
x264 [info]: ref B L0: 75.3% 17.4%  5.8%  1.5%
x264 [info]: ref B L1: 91.1%  8.9%
x264 [info]: kb/s:16271.30
x264 [total]: encoded 180068 frames, 3.618 fps, 16271.31 kb/s, 14568 MB
MediaInfo
Format                           : Matroska
Format version                   : Version 4 / Version 2
File size                        : 16.2 GiB
Duration                         : 2h 5mn
Overall bit rate                 : 18.6 Mbps
Encoded date                     : UTC 2014-04-27 12:48:29
Writing application              : mkvmerge v6.8.0 ('Theme for Great Cities') 64bit built on Mar  2 2014 21:34:26
Writing library                  : libebml v1.3.0 + libmatroska v1.4.1
Video
ID                               : 1
Format                           : AVC
Format/Info                      : Advanced Video Codec
Format profile                   : High@L4.1
Format settings, CABAC           : Yes
Format settings, ReFrames        : 5 frames
Codec ID                         : V_MPEG4/ISO/AVC
Duration                         : 2h 5mn
Bit rate                         : 15.9 Mbps
Width                            : 1 920 pixels
Height                           : 798 pixels
Display aspect ratio             : 2.40:1
Frame rate                       : 23.976 fps
Color space                      : YUV
Chroma subsampling               : 4:2:0
Bit depth                        : 8 bits
Scan type                        : Progressive
Bits/(Pixel*Frame)               : 0.433
Stream size                      : 13.9 GiB (86%)
Title                            : Vikosol
Writing library                  : x264 core 142 r2431+42 c69a006 tMod [8-bit@all X86_64]
Encoding settings                : cabac=1 / ref=5 / deblock=1:-3:-3 / analyse=0x3:0x113 / me=umh / subme=11 / psy=1 / fade_compensate=0.00 / psy_rd=1.00:0.05 / mixed_ref=1 / me_range=24 / chroma_me=1 / trellis=2 / 8x8dct=1 / cqm=0 / deadzone=21,11 / fast_pskip=0 / chroma_qp_offset=-3 / threads=6 / lookahead_threads=1 / sliced_threads=0 / nr=0 / decimate=0 / interlaced=0 / bluray_compat=0 / constrained_intra=0 / fgo=0 / bframes=9 / b_pyramid=2 / b_adapt=2 / b_bias=0 / direct=3 / weightb=1 / open_gop=0 / weightp=2 / keyint=240 / keyint_min=23 / scenecut=40 / intra_refresh=0 / rc=crf / mbtree=0 / crf=18.0000 / qcomp=0.60 / qpmin=0:0:0 / qpmax=69:69:69 / qpstep=4 / ip_ratio=1.40 / pb_ratio=1.30 / aq=4:0.75 / aq-sensitivity=10.00 / aq-factor=1.00:1.00:1.00 / aq2=0 / aq3=0
Language                         : English
Audio #1
ID                               : 2
Format                           : DTS
Format/Info                      : Digital Theater Systems
Codec ID                         : A_DTS
Duration                         : 2h 5mn
Bit rate mode                    : Constant
Bit rate                         : 755 Kbps
Channel(s)                       : 6 channels
Channel positions                : Front: L C R, Side: L R, LFE
Sampling rate                    : 48.0 KHz
Bit depth                        : 24 bits
Compression mode                 : Lossy
Stream size                      : 676 MiB (4%)
Title                            : MVO
Language                         : Russian
Audio #2
ID                               : 3
Format                           : DTS
Format/Info                      : Digital Theater Systems
Codec ID                         : A_DTS
Duration                         : 2h 5mn
Bit rate mode                    : Constant
Bit rate                         : 1 510 Kbps
Channel(s)                       : 6 channels
Channel positions                : Front: L C R, Side: L R, LFE
Sampling rate                    : 48.0 KHz
Bit depth                        : 24 bits
Compression mode                 : Lossy
Stream size                      : 1.32 GiB (8%)
Language                         : English
Text #1
ID                               : 4
Format                           : UTF-8
Codec ID                         : S_TEXT/UTF8
Codec ID/Info                    : UTF-8 Plain Text
Title                            : Full
Language                         : Russian
Text #2
ID                               : 5
Format                           : UTF-8
Codec ID                         : S_TEXT/UTF8
Codec ID/Info                    : UTF-8 Plain Text
Title                            : SDH
Language                         : English
Menu
00:00:00.000                     : :Chapter 01
00:00:57.974                     : :Chapter 03
00:01:50.193                     : :Chapter 05
00:06:46.739                     : :Chapter 07
00:09:10.550                     : :Chapter 09
00:14:39.003                     : :Chapter 11
00:16:03.212                     : :Chapter 13
00:20:29.144                     : :Chapter 15
00:25:15.639                     : :Chapter 17
00:28:27.747                     : :Chapter 19
00:32:22.398                     : :Chapter 21
00:37:16.150                     : :Chapter 23
00:40:35.516                     : :Chapter 25
00:44:36.131                     : :Chapter 27
00:52:38.613                     : :Chapter 29
00:55:12.726                     : :Chapter 31
00:58:46.147                     : :Chapter 33
01:05:23.920                     : :Chapter 35
01:08:47.832                     : :Chapter 37
01:12:48.530                     : :Chapter 39
01:15:51.380                     : :Chapter 41
01:18:48.724                     : :Chapter 43
01:21:49.821                     : :Chapter 45
01:24:46.498                     : :Chapter 47
01:29:00.043                     : :Chapter 49
01:31:54.050                     : :Chapter 51
01:35:10.079                     : :Chapter 53
01:43:51.892                     : :Chapter 55
01:47:56.887                     : :Chapter 57
01:53:00.565                     : :Chapter 59
01:55:45.647                     : :Chapter 61
01:57:01.806                     : :Chapter 63
02:05:10.085                     : :Chapter 64
Скриншоты
Скачать

Скачать торрент!

Как скачивать? · Что такое торрент? · Рейтинг и ограничения

Сайт не распространяет и не хранит электронные версии произведений, а лишь предоставляет доступ к создаваемому пользователями каталогу ссылок на торрент-файлы, которые содержат только списки хеш-сумм

[Профиль] [ЛС]
Показать сообщения:    
Ответить на тему

Текущее время: Сегодня 14:47

Часовой пояс: GMT + 4



Вы не можете начинать темы
Вы не можете отвечать на сообщения
Вы не можете редактировать свои сообщения
Вы не можете удалять свои сообщения
Вы не можете голосовать в опросах
Вы не можете прикреплять файлы к сообщениям
Вы не можете скачивать файлы