Филомена / Philomena (Стивен Фрирз / Stephen Frears) [2013, Великобритания, США, Франция, драма, комедия, BDRip 1080p] [GBR Transfer] Dub + Original (Eng) + Sub (Rus, Eng)

Ответить на тему
 
Автор Сообщение

user ®

Стаж: 7 лет 7 месяцев

Сообщений: 20008

Пост Пост: #1 от 28-Апр-2014 23:50

[Цитировать]

Филомена / Philomena
Страна: Великобритания, США, Франция
Производство: Baby Cow Productions Ltd., BBC Films
Жанр: драма, комедия
Год выпуска: 2013
Продолжительность: 01:37:44
Перевод: Профессиональный (дублированный) BD RUS
Оригинальная аудиодорожка: английская
Cубтитры: русские, английские
Режиссер: Стивен Фрирз / Stephen Frears
В ролях: Джуди Денч, Стив Кугэн, Софи Кеннеди Кларк, Мэр Уиннингхэм, Барбара Джеффорд, Рут МакКейб, Питер Хэрман, Шон Махон, Анна Максвелл Мартин, Мишель Фэйрли
Описание: Филомена — ирландская женщина, которая еще в подростковом возрасте родила сына. Однако она не смогла испытать материнское счастье, поскольку ее поступок не был одобрен окружающими, и ее отправили на перевоспитание в местный монастырь. Ее маленького ребенка забрали и отдали в американскую семью, которая усыновила его. Оказавшись в монастыре, девушка с первых дней начала терпеть различные унижения, выносить которые было все сложнее и сложнее. В один прекрасный момент ей все таки удалось вырваться из этого места и начать жить свободной жизнью. Она многого сумела добиться и прожила достойную жизнь, но за все эти годы ей так и не удалось отыскать своего ребенка. Историей этой женщины очень заинтересовался Мартин Сиксмит — опытный журналист, пытающийся установить роль церкви в многочисленных сломанных судьбах...

Релиз: fanatus
Качество видео: BDRip 1080p
Исходник: Blu-ray Disc (Custom) 1080p [GBR Transfer] - BLUEBIRD
Контейнер: MKV
Видео: MPEG-4 AVC, 19.6 Mbps , 1916x1038 (1.85:1), 24.000 fps, 0.411 bit/pixel
Аудио 1: русский (DTS, 6 ch, 48 kHz, 1510 kbps) Dub[BD RUS]
Аудио 2: английский (DTS, 6 ch, 48 kHz, 1510 kbps) Original
Формат субтитров: softsub (SRT)
Главы: есть
MediaInfo
General
Unique ID : 211575296966121778389667561067779693225 (0x9F2BEB8497F559B780F8D0398D179AA9)
Complete name : F:\Philomena.2013.x264.BDRip.1080p.fanatus.mkv
Format : Matroska
Format version : Version 2
File size : 15.4 GiB
Duration : 1h 37mn
Overall bit rate : 22.5 Mbps
Movie name : Philomena (2013) - fanatus
Encoded date : UTC 2014-04-27 16:57:47
Writing application : mkvmerge v3.4.0 ('Rapunzel') сборка от May 15 2010 09:38:20
Writing library : libebml v0.8.0 + libmatroska v0.9.0
Video
ID : 1
Format : AVC
Format/Info : Advanced Video Codec
Format profile : High@L4.1
Format settings, CABAC : Yes
Format settings, ReFrames : 4 frames
Codec ID : V_MPEG4/ISO/AVC
Duration : 1h 37mn
Bit rate : 19.6 Mbps
Width : 1 916 pixels
Height : 1 038 pixels
Display aspect ratio : 1.85:1
Frame rate : 24.000 fps
Color space : YUV
Chroma subsampling : 4:2:0
Bit depth : 8 bits
Scan type : Progressive
Bits/(Pixel*Frame) : 0.411
Stream size : 13.0 GiB (85%)
Title : Philomena (2013) BDRip 1080p
Writing library : x264 core 142 r2409+42 04be48a tMod [8-bit@all X86]
Encoding settings : cabac=1 / ref=4 / deblock=1:-3:-3 / analyse=0x3:0x113 / me=tesa / subme=11 / psy=1 / fade_compensate=0.00 / psy_rd=1.05:0.10 / mixed_ref=1 / me_range=48 / chroma_me=1 / trellis=2 / 8x8dct=1 / cqm=0 / deadzone=21,11 / fast_pskip=0 / chroma_qp_offset=-3 / threads=16 / lookahead_threads=2 / sliced_threads=0 / nr=0 / decimate=0 / interlaced=0 / bluray_compat=0 / constrained_intra=0 / fgo=0 / bframes=9 / b_pyramid=2 / b_adapt=2 / b_bias=0 / direct=3 / weightb=1 / open_gop=0 / weightp=2 / keyint=240 / keyint_min=24 / scenecut=40 / intra_refresh=0 / rc_lookahead=240 / rc=2pass / mbtree=0 / bitrate=19600 / ratetol=1.0 / qcomp=0.70 / qpmin=0:0:0 / qpmax=69:69:69 / qpstep=4 / cplxblur=20.0 / qblur=0.5 / vbv_maxrate=50000 / vbv_bufsize=62500 / nal_hrd=none / filler=0 / ip_ratio=1.40 / pb_ratio=1.40 / aq=3:0.70 / aq-sensitivity=10.00 / aq-factor=1.00:1.00:1.00 / aq2=0 / aq3=0
Language : English
Default : Yes
Forced : No
Audio #1
ID : 2
Format : DTS
Format/Info : Digital Theater Systems
Codec ID : A_DTS
Duration : 1h 37mn
Bit rate mode : Constant
Bit rate : 1 510 Kbps
Channel(s) : 6 channels
Channel positions : Front: L C R, Side: L R, LFE
Sampling rate : 48.0 KHz
Bit depth : 24 bits
Compression mode : Lossy
Stream size : 1.03 GiB (7%)
Title : Dub (BluRay)
Language : Russian
Default : Yes
Forced : No
Audio #2
ID : 3
Format : DTS
Format/Info : Digital Theater Systems
Codec ID : A_DTS
Duration : 1h 37mn
Bit rate mode : Constant
Bit rate : 1 510 Kbps
Channel(s) : 6 channels
Channel positions : Front: L C R, Side: L R, LFE
Sampling rate : 48.0 KHz
Bit depth : 24 bits
Compression mode : Lossy
Stream size : 1.03 GiB (7%)
Title : Original
Language : English
Default : No
Forced : No
Text #1
ID : 4
Format : UTF-8
Codec ID : S_TEXT/UTF8
Codec ID/Info : UTF-8 Plain Text
Language : Russian
Default : No
Forced : No
Text #2
ID : 5
Format : UTF-8
Codec ID : S_TEXT/UTF8
Codec ID/Info : UTF-8 Plain Text
Language : English
Default : No
Forced : No
Menu
00:00:00.000 : en:00:00:00.000
00:03:31.125 : en:00:03:31.125
00:11:02.333 : en:00:11:02.333
00:21:31.500 : en:00:21:31.500
00:27:02.167 : en:00:27:02.167
00:32:30.667 : en:00:32:30.667
00:35:58.833 : en:00:35:58.833
00:43:30.875 : en:00:43:30.875
00:49:11.458 : en:00:49:11.458
00:56:54.458 : en:00:56:54.458
01:01:22.458 : en:01:01:22.458
01:05:04.833 : en:01:05:04.833
01:10:30.750 : en:01:10:30.750
01:16:36.875 : en:01:16:36.875
01:22:44.833 : en:01:22:44.833
01:32:59.042 : en:01:32:59.042
Скриншот c названием фильма Скриншоты Source vs Rip
Скачать

Скачать торрент!

Как скачивать? · Что такое торрент? · Рейтинг и ограничения

Сайт не распространяет и не хранит электронные версии произведений, а лишь предоставляет доступ к создаваемому пользователями каталогу ссылок на торрент-файлы, которые содержат только списки хеш-сумм

[Профиль] [ЛС]
Показать сообщения:    
Ответить на тему

Текущее время: Сегодня 06:25

Часовой пояс: GMT + 4



Вы не можете начинать темы
Вы не можете отвечать на сообщения
Вы не можете редактировать свои сообщения
Вы не можете удалять свои сообщения
Вы не можете голосовать в опросах
Вы не можете прикреплять файлы к сообщениям
Вы не можете скачивать файлы