Помпеи: апокалипсис / Apocalypse Pompeii (Бен Демари / Ben Demaree) [2014, США, боевик, приключения, HDRip] VO (Pashaup)

Ответить на тему
 
Автор Сообщение

user ®

Стаж: 7 лет 7 месяцев

Сообщений: 20008

Пост Пост: #1 от 28-Апр-2014 20:40

[Цитировать]

Помпеи: апокалипсис / Apocalypse Pompeii
Страна: США
Жанр: боевик, приключения
Год выпуска: 2014
Продолжительность: 01:27:39
Перевод: Одноголосый закадровый Pashaup
Cубтитры: нет
Оригинальная аудиодорожка: нет
Режиссер: Бен Демари / Ben Demaree
В ролях: Эдриан Пол, Jhey Castles, Georgina Beedle, Джон Рис-Дэвис, Дилан Вокс, Дэн Кейд, Alexandra Petrova-Emisti, Гарри Аничкин, Vrunda Patel, Йонас Токингтон
Описание: Кто мог предугадать, что это повторится? Вулкан Везувий, некогда погубивший Помпеи, снова проснулся. Бывшему спецназовцу предстоит спасти своих жену и дочь, оказавшихся в ловушке во время извержения.
Доп. информация:
Kinopoisk
IMDB
Sample
Качество видео: HDRip
Формат видео: AVI
Видео: Xvid 720x400 23.976fps 1 993 Kbps
Аудио: Dolby AC3 48000Hz 6ch 384kbps
MediaInfo
General
Complete name : D:\Apocalypse.Pompeii.2014.HDRip.avi
Format : AVI
Format/Info : Audio Video Interleave
File size : 1.46 GiB
Duration : 1h 27mn
Overall bit rate : 2 386 Kbps
Writing application : VirtualDubMod 1.5.10.3 | www.virtualdub-fr.org || (build 2550/release)
Writing library : VirtualDubMod build 2550/release
Video
ID : 0
Format : MPEG-4 Visual
Format profile : Advanced Simple@L5
Format settings, BVOP : Yes
Format settings, QPel : No
Format settings, GMC : No warppoints
Format settings, Matrix : Custom
Codec ID : XVID
Codec ID/Hint : XviD
Duration : 1h 27mn
Bit rate : 1 993 Kbps
Width : 720 pixels
Height : 400 pixels
Display aspect ratio : 16:9
Frame rate : 23.976 fps
Color space : YUV
Chroma subsampling : 4:2:0
Bit depth : 8 bits
Scan type : Progressive
Compression mode : Lossy
Bits/(Pixel*Frame) : 0.289
Stream size : 1.22 GiB (84%)
Writing library : XviD 73
Audio
ID : 1
Format : AC-3
Format/Info : Audio Coding 3
Mode extension : CM (complete main)
Format settings, Endianness : Big
Codec ID : 2000
Duration : 1h 27mn
Bit rate mode : Constant
Bit rate : 384 Kbps
Channel count : 6 channels
Channel positions : Front: L C R, Side: L R, LFE
Sampling rate : 48.0 KHz
Bit depth : 16 bits
Compression mode : Lossy
Stream size : 241 MiB (16%)
Alignment : Split accross interleaves
Interleave, duration : 42 ms (1.00 video frame)
Interleave, preload duration : 500 ms
Скриншот c названием фильма Скриншоты
Скачать

Скачать торрент!

Как скачивать? · Что такое торрент? · Рейтинг и ограничения

Сайт не распространяет и не хранит электронные версии произведений, а лишь предоставляет доступ к создаваемому пользователями каталогу ссылок на торрент-файлы, которые содержат только списки хеш-сумм

[Профиль] [ЛС]
Показать сообщения:    
Ответить на тему

Текущее время: Сегодня 18:37

Часовой пояс: GMT + 4



Вы не можете начинать темы
Вы не можете отвечать на сообщения
Вы не можете редактировать свои сообщения
Вы не можете удалять свои сообщения
Вы не можете голосовать в опросах
Вы не можете прикреплять файлы к сообщениям
Вы не можете скачивать файлы