Этот Неловкий Момент / That Awkward Moment (Том Гормикэн / Tom Gormican) [2014, США, Комедия, Мелодрама, BDRip] Dub

Ответить на тему
 
Автор Сообщение

user ®

Стаж: 7 лет 7 месяцев

Сообщений: 20008

Пост Пост: #1 от 28-Апр-2014 20:40

[Цитировать]

Этот неловкий момент / That Awkward Moment
«Когда ты понимаешь: добиться многого - значит мыслить по-крупному»
-Страна: США
Студия: Aversano Films, Ninjas Runnin' Wild Productions, Treehouse Pictures, Virgin Produced, What If It Barks Films
Жанр: мелодрама, комедия
Год выпуска: 2014
Продолжительность: 01:34:31
Перевод: Профессиональный (дублированный) [Лицензия]
Cубтитры: нет
Оригинальная аудиодорожка: нет-Режиссер: Том Гормикэн / Tom Gormican
В ролях: Зак Эфрон, Майлз Теллер, Майкл Б. Джордан, Имоджен Путс, Маккензи Дэвис, Джессика Лукас, Эддисон Тимлин, Джош Пэйс, Эвелина Обоза, Карен Людвиг...
Описание: Джейсон, Дэниел и Майкл — типичные обитатели Манхеттена, красивые остроумные парни. После того, как одного из них бросает подружка, они клянутся больше никогда не заводить с девушками серьезных отношений. Но очень скоро, после кучи «неловких моментов», они встречают настоящую любовь. И как теперь быть с дружеской сделкой?-Автор рипа: _Flash- -Качество видео: BDRip /That.Awkward.Moment.2014.1080p.BluRay.AVC.DTS-HD.MA.5.1-PublicHD/
Формат видео: AVI
Видео: 688x288, 23,976 fps, XviD 73, ~ 971 kbps avg, 0.210 bit/pixel
Аудио: 48 kHz, MP3, 2 ch, 128 kbps
-Дополнительно о фильме:
Технические детали съёмки:
Производство, студия дубляжа, прокат:
Ошибки в фильме
MediaInfo

Общее
Полное имя : D:\That.Awkward.Moment.2014.BDRip.745mb.By_Flash.avi
Формат : AVI
Формат/Информация : Audio Video Interleave
Размер файла : 749 Мбайт
Продолжительность : 1 ч. 34 м.
Общий поток : 1108 Кбит/сек
Программа кодирования : VirtualDubMod 1.5.10.3 | www.virtualdub-fr.org || (build 2550/release)
Библиотека кодирования : VirtualDubMod build 2550/release
Видео
Идентификатор : 0
Формат : MPEG-4 Visual
Профиль формата : Advanced Simple@L5
Параметр BVOP формата : 1
Параметр QPel формата : Нет
Параметр GMC формата : Без точки перехода
Параметр матрицы формата : Выборочная
Идентификатор кодека : XVID
Идентификатор кодека/Подсказка : XviD
Продолжительность : 1 ч. 34 м.
Битрейт : 971 Кбит/сек
Ширина : 688 пикселей
Высота : 288 пикселей
Соотношение сторон : 2,40:1
Частота кадров : 23,976 кадра/сек
Цветовое пространство : YUV
Субдискретизация насыщенности : 4:2:0
Битовая глубина : 8 бит
Тип развёртки : Прогрессивная
Метод сжатия : С потерями
Бит/(Пиксели*Кадры) : 0.204
Размер потока : 656 Мбайт (88%)
Библиотека кодирования : XviD 73
Аудио
Идентификатор : 1
Формат : MPEG Audio
Версия формата : Version 1
Профиль формата : Layer 3
Идентификатор кодека : 55
Идентификатор кодека/Подсказка : MP3
Продолжительность : 1 ч. 34 м.
Вид битрейта : Постоянный
Битрейт : 128 Кбит/сек
Каналы : 2 канала
Частота : 48,0 КГц
Метод сжатия : С потерями
Размер потока : 86,5 Мбайт (12%)
Выравнивание : Соединение по промежуткам
Продолжительность промежутка : 42 мс. (1,00 видеокадр)
Время предзагрузки промежутка : 504 мс.
Библиотека кодирования : LAME3.99r
Настройки программы : -m s -V 4 -q 2 -lowpass 17 -b 128
Скриншот c названием фильма Скриншоты
Скачать

Скачать торрент!

Как скачивать? · Что такое торрент? · Рейтинг и ограничения

Сайт не распространяет и не хранит электронные версии произведений, а лишь предоставляет доступ к создаваемому пользователями каталогу ссылок на торрент-файлы, которые содержат только списки хеш-сумм

[Профиль] [ЛС]
Показать сообщения:    
Ответить на тему

Текущее время: Сегодня 22:33

Часовой пояс: GMT + 4



Вы не можете начинать темы
Вы не можете отвечать на сообщения
Вы не можете редактировать свои сообщения
Вы не можете удалять свои сообщения
Вы не можете голосовать в опросах
Вы не можете прикреплять файлы к сообщениям
Вы не можете скачивать файлы