23:59 / 23:59 (Гилберт Чан / Gilbert Chan) [2011, Сингапур, триллер, ужасы, HDRip] VO (den904) + Original Eng

Ответить на тему
 
Автор Сообщение

user ®

Стаж: 13 лет

Сообщений: 15071

Пост Пост: #1 от 28-Апр-2014 15:25

[Цитировать]

23:59 / 23:59
Страна: Сингапур
Жанр: триллер, ужасы
Год выпуска: 2011
Продолжительность: 01:18:18
Перевод: Одноголосый закадровый den904
Cубтитры: нет
Оригинальная аудиодорожка: английский
Режиссер: Гилберт Чан / Gilbert Chan
В ролях: Тедд Чан, Стелла Чун, Хенлм Хи, Лоуренс Ко, Томми Куан, Джош Лай, Марк Ли
Описание: Травить по ночам в казарме страшные байки — не самая лучшая идея. Особенно если среди сослуживцев есть суеверный рядовой Тан, которому и так повсюду мерещатся привидения. Вскоре этот рядовой Тан при загадочных обстоятельствах погибает во время марш-броска через лес. А после этого даже самые скептически настроенные бойцы начинают верить, что призраки существуют, по крайней мере неупокоенный дух Тана уж точно вернулся в расположение родной части.
Доп. информация:

Качество видео: HDRip
Формат видео: AVI
Видео: Xvid 720x400 23.976fps 1 915 Kbps
Аудио: Dolby AC3 48000Hz stereo 192kbps
Аудио 2: Dolby AC3 48000Hz stereo 384 Kbps
MediaInfo
General
Complete name : D:\23.59.2012.HDRip.avi
Format : AVI
Format/Info : Audio Video Interleave
File size : 1.37 GiB
Duration : 1h 18mn
Overall bit rate : 2 505 Kbps
Writing application : VirtualDubMod 1.5.10.2 (build 2540/release)
Writing library : VirtualDubMod build 2540/release
Video
ID : 0
Format : MPEG-4 Visual
Format profile : Advanced Simple@L5
Format settings, BVOP : Yes
Format settings, QPel : No
Format settings, GMC : No warppoints
Format settings, Matrix : Default (MPEG)
Codec ID : XVID
Codec ID/Hint : XviD
Duration : 1h 18mn
Bit rate : 1 915 Kbps
Width : 720 pixels
Height : 400 pixels
Display aspect ratio : 16:9
Frame rate : 23.976 fps
Color space : YUV
Chroma subsampling : 4:2:0
Bit depth : 8 bits
Scan type : Progressive
Compression mode : Lossy
Bits/(Pixel*Frame) : 0.277
Stream size : 1.05 GiB (76%)
Writing library : XviD 1.2.1 (UTC 2008-12-04)
Audio #1
ID : 1
Format : AC-3
Format/Info : Audio Coding 3
Mode extension : CM (complete main)
Format settings, Endianness : Big
Codec ID : 2000
Duration : 1h 18mn
Bit rate mode : Constant
Bit rate : 192 Kbps
Channel count : 2 channels
Channel positions : Front: L R
Sampling rate : 48.0 KHz
Bit depth : 16 bits
Compression mode : Lossy
Stream size : 108 MiB (8%)
Alignment : Split accross interleaves
Interleave, duration : 42 ms (1.00 video frame)
Interleave, preload duration : 500 ms
Audio #2
ID : 2
Format : AC-3
Format/Info : Audio Coding 3
Mode extension : CM (complete main)
Format settings, Endianness : Big
Codec ID : 2000
Duration : 1h 18mn
Bit rate mode : Constant
Bit rate : 384 Kbps
Channel count : 6 channels
Channel positions : Front: L C R, Side: L R, LFE
Sampling rate : 48.0 KHz
Bit depth : 16 bits
Compression mode : Lossy
Stream size : 215 MiB (15%)
Alignment : Split accross interleaves
Interleave, duration : 42 ms (1.00 video frame)
Interleave, preload duration : 500 ms
Скриншот c названием фильма Скриншоты
Скачать

Скачать торрент! 23:59 / 23:59 (Гилберт Чан / Gilbert Chan) [2011, Сингапур, триллер, ужасы, HDRip] VO (den904) + Original Eng

Как скачивать? · Что такое торрент? · Рейтинг и ограничения

Сайт не распространяет и не хранит электронные версии произведений, а лишь предоставляет доступ к создаваемому пользователями каталогу ссылок на торрент-файлы, которые содержат только списки хеш-сумм

[Профиль] [ЛС]
Показать сообщения:    
Ответить на тему

Текущее время: Сегодня 21:33

Часовой пояс: GMT + 4



Вы не можете начинать темы
Вы не можете отвечать на сообщения
Вы не можете редактировать свои сообщения
Вы не можете удалять свои сообщения
Вы не можете голосовать в опросах
Вы не можете прикреплять файлы к сообщениям
Вы не можете скачивать файлы