Доспехи Бога 3: Миссия Зодиак / Chinese Zodiac (Джеки Чан / Jackie Chan) [2012, Гонконг, Китай, боевик, комедия, приключения, BDRip] Dub BD

Ответить на тему
 
Автор Сообщение

user ®

Стаж: 11 лет

Сообщений: 15151

Пост Пост: #1 от 28-Апр-2014 15:25

[Цитировать]

Доспехи Бога 3: Миссия Зодиак / Chinese Zodiac
«Охота за сокровищами началась»
- Страна: Гонконг, Китай
Жанр: боевик, комедия, приключения
Год выпуска: 2012
Продолжительность: 02:02:56
Перевод: Профессиональный (дублированный) BD
Cубтитры: нет
Оригинальная аудиодорожка: нет--Режиссер:
Джеки Чан / Jackie Chan--В ролях:
Джеки Чан (Asian Hawk), Квон Сан У (Simon), Ляо Фань (David), Синтхун Яо (Coco), Чжан Ланьсинь (Bonnie), Лаура Вейссбеккер (Catherine de Sichel), Оливер Платт (Lawrence Morgan), Шу Ци (David's Wife), Дэниэл Ву (Дэниэл Ву), Кэйтлин Дешель (Hospital Doctor), Кэйтлин Дешель (Katie), Алаа Омузун (Vulture), Эмили Гуйо (French Reporter), Рэни Бимак (Indian Reporter), Кен Ло (Pirate Chief)--Описание:
Главный герой истории — работающий по всему миру охотник за сокровищами Джей Си по кличке Ястреб. Известный антиквар предлагает ему отыскать шесть редких статуэток в виде голов животных. В свое время эти бронзовые скульптуры входили в набор из 12-ти предметов, олицетворявших знаки зодиака. Фигурки украшали фонтан легендарного Летнего дворца на окраине Пекина. В 1860 году величественное сооружение было разграблено и разрушено англо-французскими войсками на исходе Второй опиумной войны, а статуэтки безвозвратно утеряны.--Сэмпл | КиноПоиск | IMDb--Качество видео: BDRip | исх. [CHINESE_ZODIAC_2D_TW_BLUEBIRD]
Формат видео: AVI
Видео: 688x288 (2.40:1), 23.976 fps, XviD build 65 ~718 kbps avg, 0.15 bit/pixel
Аудио: 48.0 kHz, MPEG Layer 3, 2 ch, ~128.00 kbps avg | (Dub) BD

MediaInfo
Общее
Полное имя : A:\Фильмы\Доспехи Бога 3 Миссия Зодиак.2012.BDRip.XviD.752Mb.mp3.avi
Формат : AVI
Формат/Информация : Audio Video Interleave
Размер файла : 752 Мбайт
Продолжительность : 2 ч. 2 м.
Общий поток : 855 Кбит/сек
Программа кодирования : VirtualDubMod 1.5.10.2 (build 2540/release)
Библиотека кодирования : VirtualDubMod build 2540/release
Видео
Идентификатор : 0
Формат : MPEG-4 Visual
Профиль формата : Advanced Simple@L5
Параметр BVOP формата : 1
Параметр QPel формата : Нет
Параметр GMC формата : Без точки перехода
Параметр матрицы формата : Выборочная
Идентификатор кодека : XVID
Идентификатор кодека/Подсказка : XviD
Продолжительность : 2 ч. 2 м.
Битрейт : 718 Кбит/сек
Ширина : 688 пикселей
Высота : 288 пикселей
Соотношение сторон : 2,40:1
Частота кадров : 24,000 кадра/сек
Цветовое пространство : YUV
Субдискретизация насыщенности : 4:2:0
Битовая глубина : 8 бит
Тип развёртки : Прогрессивная
Метод сжатия : С потерями
Бит/(Пиксели*Кадры) : 0.151
Размер потока : 631 Мбайт (84%)
Библиотека кодирования : XviD 65
Аудио
Идентификатор : 1
Формат : MPEG Audio
Версия формата : Version 1
Профиль формата : Layer 3
Идентификатор кодека : 55
Идентификатор кодека/Подсказка : MP3
Продолжительность : 2 ч. 2 м.
Вид битрейта : Постоянный
Битрейт : 128 Кбит/сек
Каналы : 2 канала
Частота : 48,0 КГц
Метод сжатия : С потерями
Размер потока : 113 Мбайт (15%)
Выравнивание : Соединение по промежуткам
Продолжительность промежутка : 42 мс. (1,00 видеокадр)
Время предзагрузки промежутка : 504 мс.
Библиотека кодирования : LAME3.99r
Настройки программы : -m s -V 4 -q 2 -lowpass 17 -b 128
Скриншот c названием фильма Скриншоты
Скачать

Скачать торрент! Доспехи Бога 3: Миссия Зодиак / Chinese Zodiac (Джеки Чан / Jackie Chan) [2012, Гонконг, Китай, боевик, комедия, приключения, BDRip] Dub BD

Как скачивать? · Что такое торрент? · Рейтинг и ограничения

Сайт не распространяет и не хранит электронные версии произведений, а лишь предоставляет доступ к создаваемому пользователями каталогу ссылок на торрент-файлы, которые содержат только списки хеш-сумм

[Профиль] [ЛС]
Показать сообщения:    
Ответить на тему

Текущее время: Сегодня 22:08

Часовой пояс: GMT + 4



Вы не можете начинать темы
Вы не можете отвечать на сообщения
Вы не можете редактировать свои сообщения
Вы не можете удалять свои сообщения
Вы не можете голосовать в опросах
Вы не можете прикреплять файлы к сообщениям
Вы не можете скачивать файлы