Игра еще не окончена / Рa. Ван! / Ра. Первый! / Случайный доступ / Ra. One (Анураг Кашьяп / Anurag Kashyap) [2011, Индия, Фантастика, боевик, HDRip] MVO (ТК "Перец")

Ответить на тему
 
Автор Сообщение

user ®

Стаж: 12 лет

Сообщений: 15092

Пост Пост: #1 от 28-Апр-2014 00:50

[Цитировать]

Случайный доступ / Ra. One
-Страна: Индия
Жанр: Фантастика, семейный
Год выпуска: 2011
Продолжительность: 02:35:50-Перевод: Профессиональный (многоголосый закадровый) - ТК "Перец"
Cубтитры: Нет--Режиссер: Анубхав Синха /Anubhav Sinha-В ролях: Шахрукх Кхан, Карина Капур, Арджун Рампал, Шахана Госвами, Сатиш Шах, Далип Тахил, Суреш Менон, Санджай Датт, Раджникант, Джо Иган--Описание: Фильм о Шекхаре, инженере программного обеспечения в Майами, который испытывает видеоигру и пытается победить ее злодея RA.ONE. Пытаясь найти общий язык со своим сыном-подростком, проектировщик игры создает предельного злодея видеоигр. Когда программа злодея приобретает самосознание, он сбегает из игры и убивает отца. Теперь преследуемый цифровым демоном, так как он — единственный игрок, способный победить его, Мальчик должен извлечь героя игры — который был разработан в воображении его отца. Вместе маловероятный дуэт начинает строить те отношения, которые они никогда не разделяли как отец и сын, а между делом препятствуют плану злодея поработить мир. Сумеют ли они? Самое важное, как они преодолеют препятствия, чтобы одолеть злодея?-- | --Качество видео: HDRip
Формат видео: AVI-Видео: MPEG4, XviD, 720x320 (2.25), 24.000 fps, 1 422 Kbps (0.257 bit/pixel)
Аудио #1: AC-3, 48.0 KHz, 2 ch, 192 Kbps, CBR - русский
Аудио #2: AC-3, 48.0 KHz, 6 ch, 384 Kbps, CBR - хинди--Сэмпл / Sample--Релиз от: miha2154 (спасибо!)-- -
-
Скриншот с названием
-
Скриншоты
-
MI
General
Complete name : Q:\[DVDRip]\Случайный доступ.avi
Format : AVI
Format/Info : Audio Video Interleave
Format profile : OpenDML
File size : 2.19 GiB
Duration : 2h 35mn
Overall bit rate : 2 015 Kbps
Movie name : Рa. Ван! / Ра. Первый! / Игра еще не окончена / Случайный доступ / Ra. One (2011)
Director : miha2154
Writing application : VirtualDubMod 1.5.10.2 (build 2540/release)
Writing library : VirtualDubMod build 2540/release
Copyright : miha2154
Video
ID : 0
Format : MPEG-4 Visual
Format profile : Advanced Simple@L5
Format settings, BVOP : 2
Format settings, QPel : No
Format settings, GMC : No warppoints
Format settings, Matrix : Default (MPEG)
Codec ID : XVID
Codec ID/Hint : XviD
Duration : 2h 35mn
Bit rate : 1 422 Kbps
Width : 720 pixels
Height : 320 pixels
Display aspect ratio : 2.25:1
Frame rate : 24.000 fps
Color space : YUV
Chroma subsampling : 4:2:0
Bit depth : 8 bits
Scan type : Progressive
Compression mode : Lossy
Bits/(Pixel*Frame) : 0.257
Stream size : 1.55 GiB (71%)
Writing library : XviD 1.1.0 (UTC 2005-11-22)
Audio #1
ID : 1
Format : AC-3
Format/Info : Audio Coding 3
Mode extension : CM (complete main)
Format settings, Endianness : Big
Codec ID : 2000
Duration : 2h 35mn
Bit rate mode : Constant
Bit rate : 192 Kbps
Channel(s) : 2 channels
Channel positions : Front: L R
Sampling rate : 48.0 KHz
Bit depth : 16 bits
Compression mode : Lossy
Stream size : 214 MiB (10%)
Alignment : Split accross interleaves
Interleave, duration : 42 ms (1.00 video frame)
Interleave, preload duration : 500 ms
Title : Профессиональный (многоголосый закадровый) Перец
Audio #2
ID : 2
Format : AC-3
Format/Info : Audio Coding 3
Mode extension : CM (complete main)
Format settings, Endianness : Big
Codec ID : 2000
Duration : 2h 35mn
Bit rate mode : Constant
Bit rate : 384 Kbps
Channel(s) : 6 channels
Channel positions : Front: L C R, Side: L R, LFE
Sampling rate : 48.0 KHz
Bit depth : 16 bits
Compression mode : Lossy
Stream size : 428 MiB (19%)
Alignment : Split accross interleaves
Interleave, duration : 42 ms (1.00 video frame)
Interleave, preload duration : 500 ms
Title : Хинди
Скачать

Скачать торрент! Игра еще не окончена / Рa. Ван! / Ра. Первый! / Случайный доступ / Ra. One (Анураг Кашьяп / Anurag Kashyap) [2011, Индия, Фантастика, боевик, HDRip] MVO (ТК "Перец")

Как скачивать? · Что такое торрент? · Рейтинг и ограничения

Сайт не распространяет и не хранит электронные версии произведений, а лишь предоставляет доступ к создаваемому пользователями каталогу ссылок на торрент-файлы, которые содержат только списки хеш-сумм

[Профиль] [ЛС]
Показать сообщения:    
Ответить на тему

Текущее время: Сегодня 12:45

Часовой пояс: GMT + 4



Вы не можете начинать темы
Вы не можете отвечать на сообщения
Вы не можете редактировать свои сообщения
Вы не можете удалять свои сообщения
Вы не можете голосовать в опросах
Вы не можете прикреплять файлы к сообщениям
Вы не можете скачивать файлы