Поколение (Максим Фирсенко) [2011, драма, SATRip, AVC]

Ответить на тему
 
Автор Сообщение

user ®

Стаж: 7 лет 7 месяцев

Сообщений: 20008

Пост Пост: #1 от 28-Апр-2014 00:50

[Цитировать]

Поколение
Жанр: драма
Год выпуска: 2011
Продолжительность: 00:07:30
Режиссёр: Максим Фирсенко
В ролях: Тимофей Криницкий, Геннадий Скарга, Наталья Ковалёва (II), Алик Мирзоев, Виталий Натальчишин, Николай Соломончук, Александр Драглюк, Алексей Вахрушев (II), Павел Огиренко, Сергей Бабенко, Анастасия Храмова, Максим Фирсенко, Виктор Тросин, Юрий Белоконь
Описание: В Украине существует закон, благодаря которому участники Второй Мировой Войны не должны оплачивать проезд в общественном транспорте.
Но некоторые водители частных компаний все равно заставляют платить этих людей.
И это для них оставалось безнаказанным…пока, однажды, в маршрутке не решил прокатиться апостол Павел.
Доп. информация: Сценаристы: Александр Таран, Максим Фирсенко, Юрий Белоконь
Оператор: Борис Годжулов
Композитор: Михаил Сорочишин
Художники: Максим Фирсенко, Анастасия Храмова
Продюсер: Максим Фирсенко
Сэмпл: http://yadi.sk/d/CuKNgV1QNRdLt
Качество видео: SATRip
Формат видео: MP4
Видео: AVC, 640x360, 16:9, 25.000 fps, 467 Kbps
Аудио: русский, AAC, 44.1 KHz, 96.0 Kbps, 2 channels
MediaInfo
General
Complete name : C:\Users\Саша\Downloads\Поколение (2011).mp4
Format : MPEG-4
Format profile : Base Media / Version 2
Codec ID : mp42
File size : 30.4 MiB
Duration : 7mn 30s
Overall bit rate : 565 Kbps
Encoded date : UTC 2014-04-26 06:32:29
Tagged date : UTC 2014-04-26 06:32:29
gsst : 0
gstd : 451000
gssd : B4A7D6E49HH1398599168122679
gshh : r9---sn-n8v7sn7e.googlevideo.com
Video
ID : 1
Format : AVC
Format/Info : Advanced Video Codec
Format profile : Baseline@L3.0
Format settings, CABAC : No
Format settings, ReFrames : 1 frame
Codec ID : avc1
Codec ID/Info : Advanced Video Coding
Duration : 7mn 30s
Bit rate mode : Variable
Bit rate : 467 Kbps
Maximum bit rate : 1 314 Kbps
Width : 640 pixels
Height : 360 pixels
Display aspect ratio : 16:9
Frame rate mode : Constant
Frame rate : 25.000 fps
Resolution : 8 bits
Colorimetry : 4:2:0
Scan type : Progressive
Bits/(Pixel*Frame) : 0.081
Stream size : 25.1 MiB (83%)
Tagged date : UTC 2014-04-26 06:32:51
Audio
ID : 2
Format : AAC
Format/Info : Advanced Audio Codec
Format version : Version 4
Format profile : LC
Format settings, SBR : No
Codec ID : 40
Duration : 7mn 30s
Bit rate mode : Variable
Bit rate : 96.0 Kbps
Maximum bit rate : 102 Kbps
Channel(s) : 2 channels
Channel positions : L R
Sampling rate : 44.1 KHz
Stream size : 5.16 MiB (17%)
Title : IsoMedia File Produced by Google, 5-11-2011
Encoded date : UTC 2014-04-26 06:32:41
Tagged date : UTC 2014-04-26 06:32:51
Скриншот c названием фильма Скриншоты
Скачать

Скачать торрент!

Как скачивать? · Что такое торрент? · Рейтинг и ограничения

Сайт не распространяет и не хранит электронные версии произведений, а лишь предоставляет доступ к создаваемому пользователями каталогу ссылок на торрент-файлы, которые содержат только списки хеш-сумм

[Профиль] [ЛС]
Показать сообщения:    
Ответить на тему

Текущее время: Сегодня 10:00

Часовой пояс: GMT + 4



Вы не можете начинать темы
Вы не можете отвечать на сообщения
Вы не можете редактировать свои сообщения
Вы не можете удалять свои сообщения
Вы не можете голосовать в опросах
Вы не можете прикреплять файлы к сообщениям
Вы не можете скачивать файлы