Влюбленный / Gudia (Гаутам Гхош / Goutam Ghose) [1997, Индия, Драма, DVDRip] AVO (Кашкин)

Ответить на тему
 
Автор Сообщение

user ®

Стаж: 12 лет

Сообщений: 15092

Пост Пост: #1 от 27-Апр-2014 15:20

[Цитировать]

Влюбленный / Gudia
Страна: Индия
Жанр: Драма
Год выпуска: 1997
Продолжительность: 01:58:02
Перевод: Авторский (одноголосый закадровый) Александр Кашкин
Cубтитры: нет
Режиссер: Гаутам Гхош / Goutam Ghose
В ролях: Митхун Чакраборти, Нандана Сен, Пран, Мохан Агаше, Масуд Ахтар, Тику Талсания, Автар Гилл, Анджан Шривастава
Описание: Джонни — популярный певец и музыкант. Звездой его шоу является говорящая кукла Урваши, имеющая облик прекрасной девушки. Певец так привязан к своей кукле, что впадает в отчаяние, когда ее уничтожают безжалостные враги. Чтобы помочь Джонни, любящая его девушка Розмари решает выйти на сцену вместо куклы.
Сэмпл: http://multi-up.com/969718
Качество видео: DVDRip
Формат видео: AVI
Видео: XviD build 46, 720x304 (2.37:1), 29.970 fps, 1506 kbps avg
Аудио: MPEG Layer 3, 48 kHz, 2/0 (L,R) ch, 128.00 kbps avg
MediaInfo
General
Complete name : D:\Vljubijonnij.1997.XviD.DVDRip.avi
Format : AVI
Format/Info : Audio Video Interleave
File size : 1.35 GiB
Duration : 1h 58mn
Overall bit rate : 1 639 Kbps
Movie name : Влюбленный
Director : by Zindagi
Genre : Drama/Music/Romance
Writing application : VirtualDubMod 1.5.10.2 (build 2540/release)
Writing library : VirtualDubMod build 2540/release
Original source form/Name : Movie
Video
Format : xvid
Codec ID : xvid
Duration : 1h 58mn
Bit rate : 1 499 Kbps
Width : 720 pixels
Height : 304 pixels
Display aspect ratio : 2.35
Frame rate : 29.970 fps
Resolution : 24 bits
Bits/(Pixel*Frame) : 0.229
Stream size : 1.24 GiB (91%)
Audio
ID : 1
Format : MPEG Audio
Format version : Version 1
Format profile : Layer 3
Codec ID : 55
Codec ID/Hint : MP3
Duration : 1h 58mn
Bit rate mode : Constant
Bit rate : 128 Kbps
Channel(s) : 2 channels
Sampling rate : 48.0 KHz
Resolution : 16 bits
Stream size : 108 MiB (8%)
Alignment : Aligned on interleaves
Interleave, duration : 33 ms (1.00 video frame)
Interleave, preload duration : 504 ms
Writing library : LAME3.98
Encoding settings : -m j -V 4 -q 3 -lowpass 17 -b 128
Скриншоты
Скачать

Скачать торрент! Влюбленный / Gudia (Гаутам Гхош / Goutam Ghose) [1997, Индия, Драма, DVDRip] AVO (Кашкин)

Как скачивать? · Что такое торрент? · Рейтинг и ограничения

Сайт не распространяет и не хранит электронные версии произведений, а лишь предоставляет доступ к создаваемому пользователями каталогу ссылок на торрент-файлы, которые содержат только списки хеш-сумм

[Профиль] [ЛС]

Leksus

Стаж: 6 лет 9 месяцев

Сообщений: 1

Пост Пост: #2 от 02-Апр-2015 00:28 (спустя 11 месяцев 4 дня)

[Цитировать]

Очень хороший фильм
[Профиль] [ЛС]
Показать сообщения:    
Ответить на тему

Текущее время: Сегодня 15:28

Часовой пояс: GMT + 4



Вы не можете начинать темы
Вы не можете отвечать на сообщения
Вы не можете редактировать свои сообщения
Вы не можете удалять свои сообщения
Вы не можете голосовать в опросах
Вы не можете прикреплять файлы к сообщениям
Вы не можете скачивать файлы