Пока смерть не разлучит нас / Death Do Us Part (Николас Хемфрис / Nicholas Humphries) [2014, Канада, ужасы, триллер, WEB-DLRip] VO (datynet)

Ответить на тему
 
Автор Сообщение

user ®

Стаж: 7 лет 7 месяцев

Сообщений: 20008

Пост Пост: #1 от 27-Апр-2014 15:20

[Цитировать]

Пока смерть не разлучит нас / Death Do Us Part
Страна: Канада
Жанр: ужасы, триллер
Год выпуска: 2014
Продолжительность: 01:29:04
Перевод: Одноголосый закадровый datynet
Cубтитры: нет
Оригинальная аудиодорожка: нет
Режиссер: Николас Хемфрис / Nicholas Humphries
В ролях: Джулия Андерсон, Питер Бенсон, Эмили Уллерап, Кристин Шателейн, Кайл Кэсси, Бенджамин Эйрс, Дэйв Коллетт, Аарон Дуглас, Вив Ликок
Описание: Богатая светская львица Кеннеди Джэмисон всю свою жизнь мечтала об идеальной свадьбе. И вот наконец-то она помолвлена с очаровательным Райаном Харрисом, который через неделю станет её мужем, для полного счастья не хватает только последней холостяцкой вечеринки. Шафер Райана, Чет, арендует отдаленный домик в лесу, чтобы устроить им настоящий праздник, который они не забудут никогда. Но постепенно события принимают ужасающий оборот, члены компании начинают жестоко погибать один за другим. Что-то произошло, и празднование быстро превращается в кровавый кошмар. Дружба разорвана, и шквал обвинений друг друга в этом злодеянии дополняет психологический ужас, поворачивая его в сторону детективного романа.
Доп. информация:

Качество видео: WEB-DLRip
Формат видео: AVI
Видео: Xvid 720x400 (16:9) 23.976fps 998 Kbps
Аудио: MP3 44100Hz stereo 160kbps
MediaInfo
General
Complete name : C:\Torrent\Death.Do.Us.Part.WEBDLRip.avi
Format : AVI
Format/Info : Audio Video Interleave
File size : 746 MiB
Duration : 1h 29mn
Overall bit rate : 1 170 Kbps
Movie name : Goliaf.tv
Director : Drimo
Genre : Horror
Writing application : Lavf55.35.101
Original source form/Name : Movie
Comment : Rus (datynet)
Video
ID : 0
Format : MPEG-4 Visual
Format profile : Simple@L5
Format settings, BVOP : No
Format settings, QPel : No
Format settings, GMC : No warppoints
Format settings, Matrix : Default (H.263)
Codec ID : XVID
Codec ID/Hint : XviD
Duration : 1h 29mn
Bit rate : 998 Kbps
Width : 720 pixels
Height : 400 pixels
Display aspect ratio : 16:9
Frame rate : 23.976 fps
Color space : YUV
Chroma subsampling : 4:2:0
Bit depth : 8 bits
Scan type : Progressive
Compression mode : Lossy
Bits/(Pixel*Frame) : 0.145
Stream size : 636 MiB (85%)
Writing library : Lavc55.55.104
Audio
ID : 1
Format : MPEG Audio
Format version : Version 1
Format profile : Layer 3
Codec ID : 55
Codec ID/Hint : MP3
Duration : 1h 29mn
Bit rate mode : Constant
Bit rate : 160 Kbps
Channel count : 2 channels
Sampling rate : 44.1 KHz
Compression mode : Lossy
Stream size : 102 MiB (14%)
Alignment : Aligned on interleaves
Interleave, duration : 26 ms (0.63 video frame)
Interleave, preload duration : 26 ms
Writing library : LAME3.99.5
Скриншот c названием фильма Скриншоты
Скачать

Скачать торрент!

Как скачивать? · Что такое торрент? · Рейтинг и ограничения

Сайт не распространяет и не хранит электронные версии произведений, а лишь предоставляет доступ к создаваемому пользователями каталогу ссылок на торрент-файлы, которые содержат только списки хеш-сумм

[Профиль] [ЛС]
Показать сообщения:    
Ответить на тему

Текущее время: Сегодня 13:50

Часовой пояс: GMT + 4



Вы не можете начинать темы
Вы не можете отвечать на сообщения
Вы не можете редактировать свои сообщения
Вы не можете удалять свои сообщения
Вы не можете голосовать в опросах
Вы не можете прикреплять файлы к сообщениям
Вы не можете скачивать файлы